Пятеро / The Five / Deo Paibeu (Чжон Ён Сик / Jung Yeon Sik) [2013, Корея Южная, драма, триллер, HDTVRip] DVO (DeadSno & den904)

Ответить на тему
 
Автор Сообщение

user ®

Стаж: 13 лет

Сообщений: 15071

Пост Пост: #1 от 13-Апр-2014 11:05

[Цитировать]

Пятеро / The Five / Deo Paibeu
Страна: Корея Южная
Жанр: драма, триллер
Год выпуска: 2013
Продолжительность: 02:03:46
Перевод: Любительский (двухголосый закадровый) DeadSno & den904
Cубтитры: нет
Оригинальная аудиодорожка: нет
Режиссер: Чжон Ён Сик / Jung Yeon Sik
В ролях: Ким Сон А, Ма Дон Сок, Син Дон Гын, Ли Чхон А, Чжон Ин Ги, О Джу Ван, Пак Хё Джу
Описание: Маньяк в черной бейсболке безжалостно истребляет простую корейскую семью. Отец и ребенок погибают, мать — чудом остается живой. Живой, но привязанной к инвалидному креслу. Имя преступника известно, но полиция бездействует, поэтому женщина решает самостоятельно разработать план адской мести.
Доп. информация:

Сэмпл: http://multi-up.com/966540
Качество видео: HDTVRip
Формат видео: AVI
Видео: XviD 720x304 24fps 1 178 Kbps
Аудио: Dolby AC3 48000Hz stereo 192kbps

MediaInfo

General
Complete name : \The.Five.HDTVRip.2013.avi
Format : AVI
Format/Info : Audio Video Interleave
Format profile : OpenDML
File size : 1.20 GiB
Duration : 2h 3mn
Overall bit rate : 1 384 Kbps
Writing application : Lavf51.12.1
Video
ID : 0
Format : MPEG-4 Visual
Format profile : Simple@L1
Format settings, BVOP : No
Format settings, QPel : No
Format settings, GMC : No warppoints
Format settings, Matrix : Default (H.263)
Codec ID : FMP4
Duration : 2h 3mn
Bit rate : 1 178 Kbps
Width : 720 pixels
Height : 304 pixels
Display aspect ratio : 2.35:1
Frame rate : 24.000 fps
Color space : YUV
Chroma subsampling : 4:2:0
Bit depth : 8 bits
Scan type : Progressive
Compression mode : Lossy
Bits/(Pixel*Frame) : 0.224
Stream size : 1.02 GiB (85%)
Writing library : Lavc51.40.4
Audio
ID : 1
Format : AC-3
Format/Info : Audio Coding 3
Mode extension : CM (complete main)
Format settings, Endianness : Big
Codec ID : 2000
Duration : 2h 3mn
Bit rate mode : Constant
Bit rate : 192 Kbps
Channel count : 2 channels
Channel positions : Front: L R
Sampling rate : 48.0 KHz
Bit depth : 16 bits
Compression mode : Lossy
Stream size : 170 MiB (14%)
Alignment : Aligned on interleaves
Interleave, duration : 32 ms (0.77 video frame)
Interleave, preload duration : 32 ms

Скриншот c названием фильма

Скриншоты

Скачать

Скачать торрент! Пятеро / The Five / Deo Paibeu (Чжон Ён Сик / Jung Yeon Sik) [2013, Корея Южная, драма, триллер, HDTVRip] DVO (DeadSno & den904)

Как скачивать? · Что такое торрент? · Рейтинг и ограничения

Сайт не распространяет и не хранит электронные версии произведений, а лишь предоставляет доступ к создаваемому пользователями каталогу ссылок на торрент-файлы, которые содержат только списки хеш-сумм

[Профиль] [ЛС]
Показать сообщения:    
Ответить на тему

Текущее время: Сегодня 20:28

Часовой пояс: GMT + 4



Вы не можете начинать темы
Вы не можете отвечать на сообщения
Вы не можете редактировать свои сообщения
Вы не можете удалять свои сообщения
Вы не можете голосовать в опросах
Вы не можете прикреплять файлы к сообщениям
Вы не можете скачивать файлы