Божий Сын / Son of God (Кристофер Спенсер / Christopher Spencer) [2014, США, Христианская вера, WEB-DLRip] VO (qwerty) + Sub Rus + Original Eng

Ответить на тему
 
Автор Сообщение

user ®

Стаж: 7 лет 7 месяцев

Сообщений: 20008

Пост Пост: #1 от 13-Апр-2014 11:05

[Цитировать]

Божий Сын / Son of God
Страна: США
Жанр: Христианская вера
Год выпуска: 2014
Продолжительность: 02:44:41
Перевод: Одноголосый закадровый (qwerty)
Cубтитры: русские
Оригинальная аудиодорожка: английская
Режиссер: Кристофер Спенсер / Christopher Spencer
В ролях: Диего Моргадо, Амбер Роуз Ривах, Роума Дауни, Себастьян Кнапп, Дарвин Шоу, Пол Нопс, Дарси Дэвид Ринтул, Гари Оливер, Стюарт Скудамор, Нонсо Анози, Конан Стивенс, Джасса Ахлувалиа, Лэнгли Кирквуд
Описание: История Иисуса Христа от Его рождения, до распятия, Воскрешения и Вознесения
Доп. информация: Премьера в США прошла 28.02.2014 года.
Данный фильм, продолжительностью 2 час 44 мин, является киноверсией "Библии": 10 серийного, более чем 7 часового фильма 2012 года, созданного History Channel.
Английская оригинальная дорожка и русские субтитры идут дополнительными файлами
Сэмпл: http://sendfile.su/967064
Качество видео: WEB-DLRip
Формат видео: AVI
Видео: DivX; 688 х 320 (2,2); 24 к/с; 1084 Кбит/сек;
Аудио: MPEG Layer 3; MP3; 192 Кбит/сек; 2 канала; 48,0 КГц
Формат субтитров: softsub (SRT)

MediaInfo

Формат : AVI
Формат/Информация : Audio Video Interleave
Размер файла : 1,48 Гбайт
Продолжительность : 2 ч. 44 м.
Общий поток : 1285 Кбит/сек
Программа кодирования : VirtualDubMod 1.5.10.3 | www.virtualdub-fr.org || (build 2550/release)
Библиотека кодирования : VirtualDubMod build 2550/release
Видео
Идентификатор : 0
Формат : MPEG-4 Visual
Профиль формата : Simple@L1
Параметр BVOP формата : Нет
Параметр QPel формата : Нет
Параметр GMC формата : Без точки перехода
Параметр матрицы формата : Default (H.263)
Идентификатор кодека : DX50
Идентификатор кодека/Подсказка : DivX 5
Продолжительность : 2 ч. 44 м.
Битрейт : 1084 Кбит/сек
Ширина : 688 пикселей
Высота : 320 пикселей
Соотношение сторон : 2,2:1
Частота кадров : 24,000 кадра/сек
Цветовое пространство : YUV
Субдискретизация насыщенности : 4:2:0
Битовая глубина : 8 бит
Тип развёртки : Прогрессивная
Метод сжатия : С потерями
Бит/(Пиксели*Кадры) : 0.205
Размер потока : 1,25 Гбайт (84%)
Библиотека кодирования : Lavc51.40.4
Аудио
Идентификатор : 1
Формат : MPEG Audio
Версия формата : Version 1
Профиль формата : Layer 3
Режим : Joint stereo
Расширение режима : MS Stereo
Идентификатор кодека : 55
Идентификатор кодека/Подсказка : MP3
Продолжительность : 2 ч. 44 м.
Вид битрейта : Постоянный
Битрейт : 192 Кбит/сек
Каналы : 2 канала
Частота : 48,0 КГц
Метод сжатия : С потерями
Размер потока : 226 Мбайт (15%)
Выравнивание : Соединение по промежуткам
Продолжительность промежутка : 42 мс. (1,00 видеокадр)
Время предзагрузки промежутка : 504 мс.

Скриншот c названием фильма

Скачать

Скачать торрент!

Как скачивать? · Что такое торрент? · Рейтинг и ограничения

Сайт не распространяет и не хранит электронные версии произведений, а лишь предоставляет доступ к создаваемому пользователями каталогу ссылок на торрент-файлы, которые содержат только списки хеш-сумм

[Профиль] [ЛС]
Показать сообщения:    
Ответить на тему

Текущее время: Сегодня 02:14

Часовой пояс: GMT + 4



Вы не можете начинать темы
Вы не можете отвечать на сообщения
Вы не можете редактировать свои сообщения
Вы не можете удалять свои сообщения
Вы не можете голосовать в опросах
Вы не можете прикреплять файлы к сообщениям
Вы не можете скачивать файлы