Большой и Маленький (Музраб Баймухамедов) [1981, Кукольный мультфильм, VHSRip]

Ответить на тему
 
Автор Сообщение

user ®

Стаж: 7 лет 7 месяцев

Сообщений: 20008

Пост Пост: #1 от 13-Апр-2014 01:35

[Цитировать]

Большой и Маленький
Страна: СССР
Жанр: Куольный мультфильм
Продолжительность: 00:09:08
Год выпуска: 1981
Русские субтитры: нет
Режиссёр: Музраб Баймухамедов
Роли озвучивали: З.Гердт
Описание: Однажды, в одном кишлаке произошло чудо. Вылепил старый одинокий гончар себе из глины сына-помощника, трудолюбивого и послушного. Увидев это, богатый и бездетный бай с завистливой женой тоже решил вылепить из глины себе сына, но получился у него ленивый обжора….
Доп. информация: «Узбекфильм»
художник-постановщик А.Дорожинская
xудожники-кукловоды: Л.корикова,С.Попова,Л.Усачева
композитор: В.Милов
редактор: Н.Ульянова
Исходник для рипа любезно представлен Alenavova
Качество: VHSRip
Формат: AVI
Видео: 640x480 (1.33:1), 25 fps, XviD MPEG-4 ~2150 kbps avg, 0.28 bit/pixel
Аудио: 48 kHz, AC3 Dolby Digital, 1/0 (C) ch, ~192.00 kbps avg
Субтитры: нет

Подробные технические данные

Format : AVIFormat/Info : Audio Video InterleaveFile size : 154 MiBDuration : 9mn 8sOverall bit rate : 2 353 KbpsWriting application : VirtualDubModRus 1.5.10.2 (build 2542/release)Copyright : RComment : VHSRip by dvdss
VideoID : 0Format : MPEG-4 VisualFormat profile : Advanced Simple@L5Format settings, BVOP : 2Format settings, QPel : NoFormat settings, GMC : No warppointsFormat settings, Matrix : CustomCodec ID : XVIDCodec ID/Hint : XviDDuration : 9mn 8sBit rate : 2 151 KbpsWidth : 640 pixelsHeight : 480 pixelsDisplay aspect ratio : 5:4Original display aspect ratio : 4:3Frame rate : 25.000 fpsColor space : YUVChroma subsampling : 4:2:0Bit depth : 8 bitsScan type : ProgressiveCompression mode : LossyBits/(Pixel*Frame) : 0.280Stream size : 141 MiB (91%)Writing library : XviD 65
AudioID : 1Format : AC-3Format/Info : Audio Coding 3Mode extension : CM (complete main)Format settings, Endianness : BigCodec ID : 2000Duration : 9mn 8sBit rate mode : ConstantBit rate : 192 KbpsChannel(s) : 1 channelChannel positions : Front: CSampling rate : 48.0 KHzBit depth : 16 bitsCompression mode : LossyStream size : 12.6 MiB (8%)Alignment : Split accross interleavesInterleave, duration : 40 ms (1.00 video frame)Interleave, preload duration : 500 ms

Скриншоты

Скачать

Скачать торрент!

Как скачивать? · Что такое торрент? · Рейтинг и ограничения

Сайт не распространяет и не хранит электронные версии произведений, а лишь предоставляет доступ к создаваемому пользователями каталогу ссылок на торрент-файлы, которые содержат только списки хеш-сумм

[Профиль] [ЛС]
Показать сообщения:    
Ответить на тему

Текущее время: Сегодня 02:15

Часовой пояс: GMT + 4



Вы не можете начинать темы
Вы не можете отвечать на сообщения
Вы не можете редактировать свои сообщения
Вы не можете удалять свои сообщения
Вы не можете голосовать в опросах
Вы не можете прикреплять файлы к сообщениям
Вы не можете скачивать файлы