Тёмная ночь (Олег Ковалов) [2001, драма, DVB]

Ответить на тему
 
Автор Сообщение

user ®

Стаж: 7 лет 7 месяцев

Сообщений: 20008

Пост Пост: #1 от 12-Апр-2014 17:10

[Цитировать]

Тёмная ночь
Жанр: драма
Год выпуска: 2001
Продолжительность: 01:34:34
Режиссёр: Олег Ковалов
В ролях: Илья Шакунов, Лариса Жаркова, Сергей Кошонин, Алла Сергийко, Юрий Беляев, Марина Сташок, Юрий Елдинов, Василий Романов, Миша Вейд, Михаил Будолак, Евгений Назарчук, Владислав Волкоедов, Алексей Захаренков, Наталья Ходырева, Ольга Голенко, Юрий Серов, Наталья Скороход, Марьяна Семёнова, Майя Неволина-Лопатина, Анна Калугина, Афанасий Нешитой, Алексей Крымов
Описание: Действие фильма "Тёмная ночь" происходит в Германии начала 30-х годов. Имант, одинокий и замкнутый художник-фотограф, ощущает, что на страну надвигается ночь нацизма. Он хочет убежать от этой угрозы и увести вместе с собой девочку Марту, к которой он сердечно привязан.
Доп. информация: Запись потока *.ts со спутника HOT BIRD, ремукс в *.mpg программой VideoReDo.
Качество видео: DVB
Формат видео: MPEG-PS
Видео: MPEG Video, 704(768)x576 (4:3), 25,000 кадров/сек, 2 173 Кбит/сек
Аудио: MPEG Audio, 48,0 КГц, 192 Кбит/сек, 2 канала

MediaInfo

General
Complete name : D:\MPG\ТЁМНАЯ НОЧЬ (Nashe Kino).mpg
Format : MPEG-PS
File size : 1.59 GiB
Duration : 1h 34mn
Overall bit rate mode : Variable
Overall bit rate : 2 413 Kbps
Video
ID : 224 (0xE0)
Format : MPEG Video
Format version : Version 2
Format profile : Main@Main
Format settings, BVOP : Yes
Format settings, Matrix : Custom
Format settings, GOP : M=3, N=45
Duration : 1h 34mn
Bit rate mode : Variable
Bit rate : 2 173 Kbps
Maximum bit rate : 15.0 Mbps
Width : 704 pixels
Height : 576 pixels
Display aspect ratio : 4:3
Frame rate : 25.000 fps
Standard : PAL
Color space : YUV
Chroma subsampling : 4:2:0
Bit depth : 8 bits
Scan type : Interlaced
Scan order : Top Field First
Compression mode : Lossy
Bits/(Pixel*Frame) : 0.214
Time code of first frame : 00:00:00:00
Time code source : Group of pictures header
Stream size : 1.44 GiB (90%)
Audio
ID : 192 (0xC0)
Format : MPEG Audio
Format version : Version 1
Format profile : Layer 2
Duration : 1h 34mn
Bit rate mode : Constant
Bit rate : 192 Kbps
Channel count : 2 channels
Sampling rate : 48.0 KHz
Compression mode : Lossy
Delay relative to video : 21ms
Stream size : 130 MiB (8%)

Скриншот c названием фильма

Скачать

Скачать торрент!

Как скачивать? · Что такое торрент? · Рейтинг и ограничения

Сайт не распространяет и не хранит электронные версии произведений, а лишь предоставляет доступ к создаваемому пользователями каталогу ссылок на торрент-файлы, которые содержат только списки хеш-сумм

[Профиль] [ЛС]
Показать сообщения:    
Ответить на тему

Текущее время: Сегодня 19:22

Часовой пояс: GMT + 4



Вы не можете начинать темы
Вы не можете отвечать на сообщения
Вы не можете редактировать свои сообщения
Вы не можете удалять свои сообщения
Вы не можете голосовать в опросах
Вы не можете прикреплять файлы к сообщениям
Вы не можете скачивать файлы