Страх сцены / Боязнь сцены / Stage Fright (Джером Сэйбл / Jerome Sable) [2014, Канада, Ужасы, триллер, мюзикл, WEB-DLRip] VO (R.A.I.M) + Original Eng

Ответить на тему
 
Автор Сообщение

user ®

Стаж: 7 лет 7 месяцев

Сообщений: 20008

Пост Пост: #1 от 12-Апр-2014 14:00

[Цитировать]

Страх сцены / Боязнь сцены / Stage Fright
Страна: Канада
Жанр: Ужасы, триллер, мюзикл
Год выпуска: 2014
Продолжительность: 01:27:55
Перевод: Одноголосый закадровый R.A.I.M по переводу ХихиДока
Cубтитры: нет
Оригинальная аудиодорожка: английский
Режиссер: Джером Сэйбл / Jerome Sable
В ролях: Элли МакДональд, Мит Лоаф, Дуглас Смит, Минни Драйвер, Брэндон Юрановитц, Мелани Лишман, Томас Алдерсон, Кент Нолан, Эфраим Эллис, Лиэнн Миллер
Описание: Кровожадный киллер в маске, вооруженный тесаком, терроризирует музыкально-театральную труппу, репетирующую новый спектакль, поскольку люто ненавидит мюзиклы.

Качество видео: WEB-DLRip
Формат видео: AVI
Видео: Xvid 720x304 23.975fps 1610 Kbps
Аудио 1: Dolby AC3 44100Hz stereo 384kbps [Russian]
Аудио 2: Dolby AC3 48000Hz 6ch 384kbps [English]

MediaInfo

General
Format : AVI
Format/Info : Audio Video Interleave
File size : 1.47 GiB
Duration : 1h 27mn
Overall bit rate : 2 392 Kbps
Writing application : VirtualDubMod 1.5.4.1 (build 2066/release)
Writing library : VirtualDubMod build 2066/release
Original source form/Name : Movie
Comment : Rus.L1.[R.A.I.M]
Video
ID : 0
Format : MPEG-4 Visual
Format profile : Advanced Simple@L5
Format settings, BVOP : No
Format settings, QPel : No
Format settings, GMC : No warppoints
Format settings, Matrix : Default (H.263)
Codec ID : XVID
Codec ID/Hint : XviD
Duration : 1h 27mn
Bit rate : 1 610 Kbps
Width : 720 pixels
Height : 304 pixels
Display aspect ratio : 2.35:1
Frame rate : 23.976 fps
Color space : YUV
Chroma subsampling : 4:2:0
Bit depth : 8 bits
Scan type : Progressive
Compression mode : Lossy
Bits/(Pixel*Frame) : 0.307
Stream size : 1 013 MiB (67%)
Writing library : XviD 62
Audio #1
ID : 1
Format : AC-3
Format/Info : Audio Coding 3
Mode extension : CM (complete main)
Format settings, Endianness : Big
Codec ID : 2000
Duration : 1h 27mn
Bit rate mode : Constant
Bit rate : 384 Kbps
Channel(s) : 2 channels
Channel positions : Front: L R
Sampling rate : 44.1 KHz
Bit depth : 16 bits
Compression mode : Lossy
Stream size : 241 MiB (16%)
Alignment : Split accross interleaves
Interleave, duration : 42 ms (1.00 video frame)
Interleave, preload duration : 500 ms
Audio #2
ID : 2
Format : AC-3
Format/Info : Audio Coding 3
Mode extension : CM (complete main)
Format settings, Endianness : Big
Codec ID : 2000
Duration : 1h 27mn
Bit rate mode : Constant
Bit rate : 384 Kbps
Channel(s) : 6 channels
Channel positions : Front: L C R, Side: L R, LFE
Sampling rate : 48.0 KHz
Bit depth : 16 bits
Compression mode : Lossy
Stream size : 241 MiB (16%)
Alignment : Split accross interleaves
Interleave, duration : 42 ms (1.00 video frame)
Interleave, preload duration : 500 ms

Скриншоты

Скачать

Скачать торрент!

Как скачивать? · Что такое торрент? · Рейтинг и ограничения

Сайт не распространяет и не хранит электронные версии произведений, а лишь предоставляет доступ к создаваемому пользователями каталогу ссылок на торрент-файлы, которые содержат только списки хеш-сумм

[Профиль] [ЛС]
Показать сообщения:    
Ответить на тему

Текущее время: Сегодня 18:07

Часовой пояс: GMT + 4



Вы не можете начинать темы
Вы не можете отвечать на сообщения
Вы не можете редактировать свои сообщения
Вы не можете удалять свои сообщения
Вы не можете голосовать в опросах
Вы не можете прикреплять файлы к сообщениям
Вы не можете скачивать файлы