Мисс Перемена / Miss Change (Чо Син Юнг) [2013, Южная Корея, мелодрама, комедия, DVDRip] VO (mi24)

Ответить на тему
 
Автор Сообщение

user ®

Стаж: 11 лет

Сообщений: 15151

Пост Пост: #1 от 12-Апр-2014 10:50

[Цитировать]

Мисс Перемена / Miss Change
Страна: Южная Корея
Жанр: мелодрама, комедия
Год выпуска: 2013
Продолжительность: 01:40:00
Перевод: Одноголосый закадровый mi24
Cубтитры: нет
Оригинальная аудиодорожка: нет
Режиссер: Чо Син Юнг
В ролях: Сон Сам Дон, Шин Ю-Чжу, Ли Су-Чжон, Чжун Су Чжин, Син Ю Ю
Описание: Главный герой фильма — адвокат Ли Чжэ Чиль — ни разу в жизни не встречался с девушкой.
Он даже не может уверенно смотреть в глаза женщинам, а если в зале суда прокурор или судья — представительницы прекрасного пола,
то он проигрывает им во всех спорах и обсуждениях. Однако Чжэ Чиль уже 10 лет как безответно влюблен в Су Хён,
сотрудницу юридической компании «Эис». И вот жизнь Чже Чиля меняется: одним дождливым вечером он видит лежащую без сознания на дороге девушку.
Он отводит ее к себе домой и укладывает в кровать.
Затем происходит невероятное: Чжэ Чиль меняется телами с этой девушкой!
Сэмпл: http://multi-up.com/966437
Качество видео: DVDRip
Формат видео: MKV
Видео: 2040 Кбит/с, 720x480, 29,970 кадра/сек
Аудио: 320Кбит/с,48Кгц,2 канала AC3

MediaInfo

Complete name : C:\download\Miss.Change.2013.mi24.mkv
Format : Matroska
Format version : Version 4 / Version 2
File size : 1.70 GiB
Duration : 1h 40mn
Overall bit rate mode : Variable
Overall bit rate : 2 408 Kbps
Encoded date : UTC 2010-02-22 21:41:31
Writing application : mkvmerge v5.9.0 ('On The Loose') built on Dec 9 2012 15:37:01
Writing library : libebml v1.3.0 + libmatroska v1.4.0
Video
ID : 1
Format : AVC
Format/Info : Advanced Video Codec
Format profile : Baseline@L3.0
Format settings, CABAC : No
Format settings, ReFrames : 1 frame
Format settings, GOP : M=1, N=12
Muxing mode : Header stripping
Codec ID : V_MPEG4/ISO/AVC
Duration : 1h 40mn
Bit rate mode : Variable
Bit rate : 2 040 Kbps
Maximum bit rate : 2 508 Kbps
Width : 720 pixels
Height : 480 pixels
Display aspect ratio : 16:9
Original display aspect ratio : 16:9
Frame rate mode : Constant
Frame rate : 29.970 fps
Original frame rate : 24.000 fps
Standard : NTSC
Color space : YUV
Chroma subsampling : 4:2:0
Bit depth : 8 bits
Scan type : Progressive
Bits/(Pixel*Frame) : 0.197
Stream size : 1.44 GiB (85%)
Default : Yes
Forced : No
Audio
ID : 2
Format : AC-3
Format/Info : Audio Coding 3
Mode extension : CM (complete main)
Format settings, Endianness : Big
Muxing mode : Header stripping
Codec ID : A_AC3
Duration : 1h 40mn
Bit rate mode : Constant
Bit rate : 320 Kbps
Channel(s) : 2 channels
Channel positions : Front: L R
Sampling rate : 48.0 KHz
Bit depth : 16 bits
Compression mode : Lossy
Stream size : 231 MiB (13%)
Default : Yes
Forced : No

Скриншот c названием фильма

Скриншоты

Скачать

Скачать торрент! Мисс Перемена / Miss Change (Чо Син Юнг) [2013, Южная Корея, мелодрама, комедия, DVDRip] VO (mi24)

Как скачивать? · Что такое торрент? · Рейтинг и ограничения

Сайт не распространяет и не хранит электронные версии произведений, а лишь предоставляет доступ к создаваемому пользователями каталогу ссылок на торрент-файлы, которые содержат только списки хеш-сумм

[Профиль] [ЛС]
Показать сообщения:    
Ответить на тему

Текущее время: Сегодня 19:16

Часовой пояс: GMT + 4



Вы не можете начинать темы
Вы не можете отвечать на сообщения
Вы не можете редактировать свои сообщения
Вы не можете удалять свои сообщения
Вы не можете голосовать в опросах
Вы не можете прикреплять файлы к сообщениям
Вы не можете скачивать файлы