Подозреваемый / The Suspect (Шин-юн Вон / Shin-yeon Won) [2013, Корея Южная, боевик, триллер, HDTVRip] DVO

Ответить на тему
 
Автор Сообщение

user ®

Стаж: 11 лет

Сообщений: 15151

Пост Пост: #1 от 12-Апр-2014 10:50

[Цитировать]

Подозреваемый / The Suspect
Страна: Корея Южная
Жанр: боевик, триллер
Год выпуска: 2013
Продолжительность: 02:17:37
Перевод: Любительский (двухголосый закадровый) Ольга Гринтиева и Константин Романов
Cубтитры: нет
Оригинальная аудиодорожка: нет
Режиссер: Шин-юн Вон / Shin-yeon Won
В ролях: Гон Ю, Пак Хи Сун, Ю Да Ин, Чжо Сон Ха, Чо Чжэ Юн, Ли Дон Чжин
Описание: Северокорейский шпион, оказавшись покинутым своей страной, оседает в Южной Корее. Вскоре он становится главным подозреваемым в деле об убийстве генерального директора крупной корпорации. Теперь подозреваемому нужно докопаться до правды.
Доп. информация:
Сэмпл: http://multi-up.com/966330
Качество видео: HDTVRip
Формат видео: AVI
Видео: Xvid 720x304 23.976fps 1 220 Kbps
Аудио: Dolby AC3 48000Hz stereo 192kbps

MediaInfo

General
Complete name : \Podozrevemyi.2013.HDTVRip.1400MB.avi
Format : AVI
Format/Info : Audio Video Interleave
File size : 1.37 GiB
Duration : 2h 17mn
Overall bit rate : 1 422 Kbps
Writing application : VirtualDubMod 1.5.10.3 | www.virtualdub-fr.org || (build 2550/release)
Writing library : VirtualDubMod build 2550/release
Video
ID : 0
Format : MPEG-4 Visual
Format profile : Advanced Simple@L5
Format settings, BVOP : Yes
Format settings, QPel : No
Format settings, GMC : No warppoints
Format settings, Matrix : Custom
Codec ID : XVID
Codec ID/Hint : XviD
Duration : 2h 17mn
Bit rate : 1 220 Kbps
Width : 720 pixels
Height : 304 pixels
Display aspect ratio : 2.35:1
Frame rate : 23.976 fps
Color space : YUV
Chroma subsampling : 4:2:0
Bit depth : 8 bits
Scan type : Progressive
Compression mode : Lossy
Bits/(Pixel*Frame) : 0.233
Stream size : 1.17 GiB (86%)
Writing library : XviD 1.2.1 (UTC 2008-12-04)
Audio
ID : 1
Format : AC-3
Format/Info : Audio Coding 3
Mode extension : CM (complete main)
Format settings, Endianness : Big
Codec ID : 2000
Duration : 2h 17mn
Bit rate mode : Constant
Bit rate : 192 Kbps
Channel count : 2 channels
Channel positions : Front: L R
Sampling rate : 48.0 KHz
Bit depth : 16 bits
Compression mode : Lossy
Delay relative to video : 12ms
Stream size : 189 MiB (14%)
Alignment : Split accross interleaves
Interleave, duration : 42 ms (1.00 video frame)
Interleave, preload duration : 500 ms

Скриншот c названием фильма

Скриншоты

Скачать

Скачать торрент! Подозреваемый / The Suspect (Шин-юн Вон / Shin-yeon Won) [2013, Корея Южная, боевик, триллер, HDTVRip] DVO

Как скачивать? · Что такое торрент? · Рейтинг и ограничения

Сайт не распространяет и не хранит электронные версии произведений, а лишь предоставляет доступ к создаваемому пользователями каталогу ссылок на торрент-файлы, которые содержат только списки хеш-сумм

[Профиль] [ЛС]
Показать сообщения:    
Ответить на тему

Текущее время: Сегодня 16:31

Часовой пояс: GMT + 4



Вы не можете начинать темы
Вы не можете отвечать на сообщения
Вы не можете редактировать свои сообщения
Вы не можете удалять свои сообщения
Вы не можете голосовать в опросах
Вы не можете прикреплять файлы к сообщениям
Вы не можете скачивать файлы