Ниндзя: Защитник / Ninja: The Protector / Project Ninja Daredevils (Годфри Хо / Godfrey Ho) [1986, Гонконг, Канада, США, Боевик, DVDRip] AVO (Гаврилов) + AVO (Кузнецов)

Ответить на тему
 
Автор Сообщение

user ®

Стаж: 13 лет

Сообщений: 15071

Пост Пост: #1 от 12-Апр-2014 02:55

[Цитировать]

Ниндзя: Защитник / Ninja: The Protector / Project Ninja Daredevils
Страна: Гонконг, Канада, США
Жанр: Боевик
Год выпуска: 1986
Продолжительность: 01:25:21
Перевод: Авторский (одноголосый закадровый) Гаврилов
Перевод 2: Авторский (одноголосый закадровый) Кузнецов
Cубтитры: нет
Режиссер: Годфри Хо / Godfrey Ho
В ролях: Ричард Харрисон, Уорен Чан, Морна Ли, Филип Ко
Описание: Международное кольцо фальшивомонетчиков распространяет их валюту всюду по всемирным рынкам денег. Специальное полицейское подразделение сформировано, чтобы разыскать банду, ответственную за схему подделывания.
Доп. информация: За предоставленный релиз спасибо ale_x2008
Видеоряд с СГ,

Качество видео: DVDRip
Формат видео: AVI
Видео: 624x368 (1.70:1), 25 fps, XviD build 46 ~2094 kbps avg, 0.36 bit/pixel
Аудио: 48 kHz, AC3 Dolby Digital, 2/0 (L,R) ch, ~192 kbps Гаврилов
Аудио 2: 48 kHz, AC3 Dolby Digital, 2/0 (L,R) ch, ~192 kbps Кузнецов (отдельно)

MediaInfo

Ниндзя-защитник - Ninja the Protector [by ale_x2008].avi
Format : AVI
Format/Info : Audio Video Interleave
File size : 1.37 GiB
Duration : 1h 25mn
Overall bit rate : 2 296 Kbps
Movie name : Ниндзя-защитник - Ninja the Protector [by ale_x2008]
Director : Rip by ale_x2008
Writing application : VirtualDubMod 1.5.10.3 (build 2550/release)
Copyright : Edich2
Comment :
Video
ID : 0
Format : MPEG-4 Visual
Format profile : Advanced Simple@L5
Format settings, BVOP : 1
Format settings, QPel : No
Format settings, GMC : No warppoints
Format settings, Matrix : Custom
Codec ID : XVID
Codec ID/Hint : XviD
Duration : 1h 25mn
Bit rate : 2 095 Kbps
Width : 624 pixels
Height : 368 pixels
Display aspect ratio : 1.696
Frame rate : 25.000 fps
Color space : YUV
Chroma subsampling : 4:2:0
Bit depth : 8 bits
Scan type : Progressive
Compression mode : Lossy
Bits/(Pixel*Frame) : 0.365
Stream size : 1.25 GiB (91%)
Writing library : XviD 1.1.2 (UTC 2006-11-01)
Audio
ID : 1
Format : AC-3
Format/Info : Audio Coding 3
Mode extension : CM (complete main)
Format settings, Endianness : Big
Codec ID : 2000
Duration : 1h 25mn
Bit rate mode : Constant
Bit rate : 192 Kbps
Channel count : 2 channels
Channel positions : Front: L R
Sampling rate : 48.0 KHz
Bit depth : 16 bits
Compression mode : Lossy
Stream size : 117 MiB (8%)
Alignment : Split accross interleaves
Interleave, duration : 40 ms (1.00 video frame)
Interleave, preload duration : 500 ms

Скриншоты

Скачать

Скачать торрент! Ниндзя: Защитник / Ninja: The Protector / Project Ninja Daredevils (Годфри Хо / Godfrey Ho) [1986, Гонконг, Канада, США, Боевик, DVDRip] AVO (Гаврилов) + AVO (Кузнецов)

Как скачивать? · Что такое торрент? · Рейтинг и ограничения

Сайт не распространяет и не хранит электронные версии произведений, а лишь предоставляет доступ к создаваемому пользователями каталогу ссылок на торрент-файлы, которые содержат только списки хеш-сумм

[Профиль] [ЛС]
Показать сообщения:    
Ответить на тему

Текущее время: Сегодня 17:51

Часовой пояс: GMT + 4



Вы не можете начинать темы
Вы не можете отвечать на сообщения
Вы не можете редактировать свои сообщения
Вы не можете удалять свои сообщения
Вы не можете голосовать в опросах
Вы не можете прикреплять файлы к сообщениям
Вы не можете скачивать файлы