Дорогой Боженька / Dear God (Гэрри Маршалл / Garry Marshall) [1996, США, Комедия, HDTV 1080i] MVO

Ответить на тему
 
Автор Сообщение

user ®

Стаж: 7 лет 7 месяцев

Сообщений: 20008

Пост Пост: #1 от 11-Апр-2014 23:45

[Цитировать]

Дорогой Боженька / Dear God
Страна: США
Студия: Rysher Entertainment
Жанр: Комедия
Год выпуска: 1996
Продолжительность: 01:46:29
Перевод: Профессиональный (многоголосый закадровый)
Cубтитры: нет
Оригинальная аудиодорожка: нет
Режиссер: Гэрри Маршалл / Garry Marshall
В ролях: Грег Киннер, Лори Меткаф, Мария Питилло, Тим Конуэй, Гектор Элизондо, Джон Седа, Роско Ли Браун, Анна Мария Хорсфорд, Кэтлин Маршалл, Айседора О’Бото
Описание: Жулик и аферист Том Тернер ни дня в своей жизни не занимался честным трудом и в конце концов попался. По решению суда он должен или устроиться на работу, или сесть в тюрьму. Сделав естественный выбор, Том начинает работу в почтовом отделении «безнадежных писем», но и там не может удержаться от своих вредных привычек.
Сэмпл: http://multi-up.com/966222, http://www.sendspace.com/file/zpmv9c, http://rusfolder.com/40401848
Тип релиза: HDTV 1080i
Контейнер: TS
Видео: 4623 Кбит/сек, MPEG4 Video (H264) 1920x1080 (16:9) 25fps
Аудио: MPEG Audio 48000Hz stereo Layer 2 192kbps

MediaInfo

Общее
Идентификатор : 1 (0x1)
Полное имя : D:\Дорогой Боженька (Dear God ) [1996] (RU) [Paramount Channel HD].ts
Формат : MPEG-TS
Размер файла : 3,77 Гбайт
Продолжительность : 1 ч. 46 м.
Режим общего битрейта : Переменный
Общий поток : 5067 Кбит/сек
Максимальный общий битрейт : 35,5 Мбит/сек
Видео
Идентификатор : 4113 (0x1011)
Идентификатор меню : 1 (0x1)
Формат : AVC
Формат/Информация : Advanced Video Codec
Профиль формата : High@L4.0
Параметр CABAC формата : Да
Параметр ReFrames формата : 4 кадра
Идентификатор кодека : 27
Продолжительность : 1 ч. 46 м.
Вид битрейта : Переменный
Битрейт : 4623 Кбит/сек
Максимальный битрейт : 5000 Кбит/сек
Ширина : 1920 пикселей
Высота : 1080 пикселей
Соотношение сторон : 16:9
Режим частоты кадров : Переменный
Цветовое пространство : YUV
Субдискретизация насыщенности : 4:2:0
Битовая глубина : 8 бит
Тип развёртки : MBAFF
Размер потока : 3,44 Гбайт (91%)
Аудио
Идентификатор : 4352 (0x1100)
Идентификатор меню : 1 (0x1)
Формат : MPEG Audio
Версия формата : Version 1
Профиль формата : Layer 2
Идентификатор кодека : 4
Продолжительность : 1 ч. 46 м.
Вид битрейта : Постоянный
Битрейт : 192 Кбит/сек
Каналы : 2 канала
Частота : 48,0 КГц
Метод сжатия : С потерями
Размер потока : 146 Мбайт (4%)
Язык : Russian

Скриншоты

Скачать

Скачать торрент!

Как скачивать? · Что такое торрент? · Рейтинг и ограничения

Сайт не распространяет и не хранит электронные версии произведений, а лишь предоставляет доступ к создаваемому пользователями каталогу ссылок на торрент-файлы, которые содержат только списки хеш-сумм

[Профиль] [ЛС]
Показать сообщения:    
Ответить на тему

Текущее время: Сегодня 13:42

Часовой пояс: GMT + 4



Вы не можете начинать темы
Вы не можете отвечать на сообщения
Вы не можете редактировать свои сообщения
Вы не можете удалять свои сообщения
Вы не можете голосовать в опросах
Вы не можете прикреплять файлы к сообщениям
Вы не можете скачивать файлы