Услужливые девушки / Valet girls (Рафал Зелински / Rafal Zielinski) [1987, США, комедия, HDTV 1080i] DVO (НТВ+)

Ответить на тему
 
Автор Сообщение

user ®

Стаж: 7 лет 7 месяцев

Сообщений: 20008

Пост Пост: #1 от 11-Апр-2014 23:45

[Цитировать]

Услужливые девушки / Valet girls
Страна: США
Студия: Lexyn Productions
Жанр: комедия
Год выпуска: 1987
Продолжительность: 01:19:12
Перевод: Профессиональный (двухголосый закадровый) НТВ+
Cубтитры: нет
Оригинальная аудиодорожка: нет
Режиссер: Рафал Зелински / Rafal Zielinski
В ролях: Мэри Д. Маршал, Эйприл Стюарт, Мэри Конерт, Джек ДеЛеон, Патриция Скотт Мишель, Джон Шарп, Майкл Кармэн, Стивен Лион, Рэнди Васкес, Стюарт Фрэткин, Джон Терлески, Жан Байрон, Чарльз Купер, Кенни Саша, Тони Кокс
Описание: Три девушки так мечтают попасть в шоу-бизнес, что устраиваются на работу парковщицами в Малибу, надеясь завязать полезные знакомства со знаменитостями.
Сэмпл IMDB
Тип релиза: HDTV 1080i
Контейнер: TS
Видео: AVC 1920x1080 (16:9)) 25.0fps Bit rate 8095Kbps
Аудио: MP2 48.0 KHz 2ch. 192kbps rus dvo

MediaInfo

Общее
Идентификатор : 1 (0x1)
Полное имя : E:\torrent\Valet girls.1987.HDTV1080i.ts
Формат : MPEG-TS
Размер файла : 4,83 Гбайт
Продолжительность : 1 ч. 19 м.
Режим общего битрейта : Переменный
Общий поток : 8720 Кбит/сек
Видео
Идентификатор : 1606 (0x646)
Идентификатор меню : 1 (0x1)
Формат : AVC
Формат/Информация : Advanced Video Codec
Профиль формата : High@L4.0
Параметр CABAC формата : Да
Параметр ReFrames формата : 3 кадра
Параметр GOP формата : M=4, N=32
Идентификатор кодека : 27
Продолжительность : 1 ч. 19 м.
Битрейт : 8095 Кбит/сек
Ширина : 1920 пикселей
Высота : 1080 пикселей
Соотношение сторон : 16:9
Частота кадров : 25,000 кадров/сек
Стандарт вещания : Component
Цветовое пространство : YUV
Субдискретизация насыщенности : 4:2:0
Битовая глубина : 8 бит
Тип развёртки : Чересстрочная
Порядок развёртки : Верхнее поле первое
Бит/(Пиксели*Кадры) : 0.156
Размер потока : 4,48 Гбайт (93%)
Основные цвета : BT.709
Характеристики трансфера : BT.709
Коэффициенты матрицы : BT.709
Аудио
Идентификатор : 2606 (0xA2E)
Идентификатор меню : 1 (0x1)
Формат : MPEG Audio
Версия формата : Version 1
Профиль формата : Layer 2
Идентификатор кодека : 3
Продолжительность : 1 ч. 19 м.
Вид битрейта : Постоянный
Битрейт : 192 Кбит/сек
Каналы : 2 канала
Частота : 48,0 КГц
Метод сжатия : С потерями
Размер потока : 109 Мбайт (2%)
Язык : Russian

Скриншот с названием фильма

Скриншоты

Скачать

Скачать торрент!

Как скачивать? · Что такое торрент? · Рейтинг и ограничения

Сайт не распространяет и не хранит электронные версии произведений, а лишь предоставляет доступ к создаваемому пользователями каталогу ссылок на торрент-файлы, которые содержат только списки хеш-сумм

[Профиль] [ЛС]
Показать сообщения:    
Ответить на тему

Текущее время: Сегодня 18:06

Часовой пояс: GMT + 4



Вы не можете начинать темы
Вы не можете отвечать на сообщения
Вы не можете редактировать свои сообщения
Вы не можете удалять свои сообщения
Вы не можете голосовать в опросах
Вы не можете прикреплять файлы к сообщениям
Вы не можете скачивать файлы