Качели (Антон Сиверс) [2008 г., остросюжетная мелодрама, BDRip]

Ответить на тему
 
Автор Сообщение

user ®

Стаж: 7 лет 7 месяцев

Сообщений: 20008

Пост Пост: #1 от 11-Апр-2014 23:45

[Цитировать]

-Качели--Год выпуска: 2008
Жанр: остросюжетная мелодрама
Продолжительность: 01:30:26--Режиссер: Антон Сиверс--В ролях:
Мария Миронова, Андрей Мерзликин, Ксения Раппопорт, Вячеслав Разбегаев, Борис Хвошнянский, Хельга Филиппова, Максим Бритвенков, Олег Гаркуша, Анатолий Петров, Полина Исаева
--Описание:
Уходя на работу, он не знает, вернётся ли домой. Потому что рисковать жизнью — его профессия. Но иногда смертельное ранение может нанести любовь, потому что любовь, как пуля, бьет прямо в сердце.Вся жизнь героев этой ленты — Качели. То, задыхаясь от любви, они взлетают в облака, то с самого пика наслажденья падают вниз, в грязь и пустоту… Качели раскачиваются всё сильнее, и остановить их они попытаются лишь тогда, когда это почти невозможно.
-Доп. информация:- - Сэмпл Рип совместим с бытовыми DVD-проигрывателями. --Качество видео: BDRip
Формат видео: AVI
Видео: 720x304 (2.37:1), 23.976 fps, XviD build 73 ~1846 kbps avg, 0.35 bit/pixel
Аудио: 48 kHz, AC3 Dolby Digital, 6 ch, 448 kbps-

MediaInfo

General
Complete name : \Kacheli_(2008).BDRip.XviD.ac3_[All.Films][RG].avi
Format : AVI
Format/Info : Audio Video Interleave
File size : 1.45 GiB
Duration : 1h 30mn
Overall bit rate : 2 303 Kbps
Movie name : Качели (2008) BDRip | [All.Films][RG]
Director : | []
Writing application : VirtualDubMod 1.5.10.3 | www.virtualdub-fr.org || (build 2550/release)
Video
ID : 0
Format : MPEG-4 Visual
Format profile : Advanced Simple@L5
Format settings, BVOP : 1
Format settings, QPel : No
Format settings, GMC : No warppoints
Format settings, Matrix : Custom
Codec ID : XVID
Codec ID/Hint : XviD
Duration : 1h 30mn
Bit rate : 1 846 Kbps
Width : 720 pixels
Height : 304 pixels
Display aspect ratio : 2.35:1
Frame rate : 23.976 fps
Color space : YUV
Chroma subsampling : 4:2:0
Bit depth : 8 bits
Scan type : Progressive
Compression mode : Lossy
Bits/(Pixel*Frame) : 0.352
Stream size : 1.17 GiB (80%)
Writing library : XviD 73
Audio
ID : 1
Format : AC-3
Format/Info : Audio Coding 3
Mode extension : CM (complete main)
Format settings, Endianness : Big
Codec ID : 2000
Duration : 1h 30mn
Bit rate mode : Constant
Bit rate : 448 Kbps
Channel count : 6 channels
Channel positions : Front: L C R, Side: L R, LFE
Sampling rate : 48.0 KHz
Bit depth : 16 bits
Compression mode : Lossy
Stream size : 290 MiB (19%)
Alignment : Split accross interleaves
Interleave, duration : 42 ms (1.00 video frame)
Interleave, preload duration : 500 ms

Скриншоты



Скачать

Скачать торрент!

Как скачивать? · Что такое торрент? · Рейтинг и ограничения

Сайт не распространяет и не хранит электронные версии произведений, а лишь предоставляет доступ к создаваемому пользователями каталогу ссылок на торрент-файлы, которые содержат только списки хеш-сумм

[Профиль] [ЛС]
Показать сообщения:    
Ответить на тему

Текущее время: Сегодня 22:34

Часовой пояс: GMT + 4



Вы не можете начинать темы
Вы не можете отвечать на сообщения
Вы не можете редактировать свои сообщения
Вы не можете удалять свои сообщения
Вы не можете голосовать в опросах
Вы не можете прикреплять файлы к сообщениям
Вы не можете скачивать файлы