Верные друзья (Михаил Калатозов) [1954, СССР, Мелодрама, комедия, BDRip]

Ответить на тему
 
Автор Сообщение

user ®

Стаж: 7 лет 7 месяцев

Сообщений: 20008

Пост Пост: #1 от 11-Апр-2014 15:45

[Цитировать]

Верные друзья -Страна: СССР
Жанр: Мелодрама, комедия
Год выпуска: 1954
Продолжительность: 01:40:29-Режиссер: Михаил Калатозов-В ролях: Василий Меркурьев, Борис Чирков, Александр Борисов, Алексей Грибов, Лилия Гриценко, Людмила Шагалова, Алексей Покровский, Юрий Саранцев, Георгий Георгиу, Николай Сморчков, Михаил Пуговкин, Григорий Белов, Георгий Гумилевский, Елена Вольская, Вера Бурлакова, Людмила Геника-Чиркова, Анатолий Дудоров, Маргарита Жарова, Константин Нассонов, Александр Лебедев, Ольга Маркина, Владимир Лепко, Елена Савицкая, Клавдия Козлёнкова, Лариса Матвеенко, Елизавета Уварова, Юрий Леонидов, Василий Корнуков, Иван Косых, Петр Любешкин, Георгий Бударов, Иван Рыжов, Николай Парфёнов, Владимир Андреев, Зоя Степанова, Иван Кузнецов, Сергей Юртайкин, Всеволод Санаев, Александр Жуков, Владимир Ратомский, Алевтина Румянцева, Александра Денисова, Борис Ситко-Описание: Когда-то давно на одной из московских окраин жили три товарища: Сашка-«кошачий барин», Борька — «чижик» и Васька — «индюк». Прошли годы. Чижик стал известным московским хирургом Чижовым, Сашка — профессором-животноводом Лапиным, Васька — академиком архитектуры Нестратовым, работающим на строительстве первых высоток столицы. Вспомнив данное когда-то друг другу обещание, верные друзья отправляются в плавание по реке на бревенчатом плоту. Для Лапина путешествие оказывается особенно счастливым: он встречает давно любимую и любящую его женщину.-Доп. информация:

Релиз: Автор рипа: MECHANICAL ENGINEER-Качество видео: BDRip
Формат видео: AVI
Видео: 704 x 512; 23.976 fps; 2359 kbps; 0.27 bit/pixel
Аудио: 48 kHz; 6 ch; 448.00 kbps; AC3 Dolby Digital
Аудио: 48 kHz; 1 ch; 192.00 kbps; AC3 Dolby Digital

MediaInfo

Format                           : AVI
Format/Info                      : Audio Video Interleave
Format profile                   : OpenDML
File size                        : 2.11 GiB
Duration                         : 1h 40mn
Overall bit rate                 : 3 007 Kbps
Movie name                       : Верные друзья (1954)
Director                         : MECHANICAL ENGINEER (Blu-Ray)
Writing application              : VirtualDubMod 1.5.10.3 | www.virtualdub-fr.org || (build 2550/release)
Copyright                        : HQ-ViDEO
Comment                          : 11.04.2014
Video
ID                               : 0
Format                           : MPEG-4 Visual
Format profile                   : Advanced Simple@L5
Format settings, BVOP            : Yes
Format settings, QPel            : No
Format settings, GMC             : No warppoints
Format settings, Matrix          : Custom
Codec ID                         : XVID
Codec ID/Hint                    : XviD
Duration                         : 1h 40mn
Bit rate                         : 2 349 Kbps
Width                            : 704 pixels
Height                           : 512 pixels
Display aspect ratio             : 1.375
Frame rate                       : 23.976 fps
Color space                      : YUV
Chroma subsampling               : 4:2:0
Bit depth                        : 8 bits
Scan type                        : Progressive
Bits/(Pixel*Frame)               : 0.272
Stream size                      : 1.65 GiB (78%)
Writing library                  : XviD 65
Audio #1
ID                               : 1
Format                           : AC-3
Format/Info                      : Audio Coding 3
Mode extension                   : CM (complete main)
Codec ID                         : 2000
Duration                         : 1h 40mn
Bit rate mode                    : Constant
Bit rate                         : 448 Kbps
Channel(s)                       : 6 channels
Channel positions                : Front: L C R, Side: L R, LFE
Sampling rate                    : 48.0 KHz
Bit depth                        : 16 bits
Stream size                      : 322 MiB (15%)
Alignment                        : Split accross interleaves
Interleave, duration             : 42 ms (1.00 video frame)
Interleave, preload duration     : 500 ms
Audio #2
ID                               : 2
Format                           : AC-3
Format/Info                      : Audio Coding 3
Mode extension                   : CM (complete main)
Codec ID                         : 2000
Duration                         : 1h 40mn
Bit rate mode                    : Constant
Bit rate                         : 192 Kbps
Channel(s)                       : 1 channel
Channel positions                : Front: C
Sampling rate                    : 48.0 KHz
Bit depth                        : 16 bits
Stream size                      : 138 MiB (6%)
Alignment                        : Split accross interleaves
Interleave, duration             : 42 ms (1.00 video frame)
Interleave, preload duration     : 500 ms

Скриншоты превью - увеличение по клику:



Скачать

Скачать торрент!

Как скачивать? · Что такое торрент? · Рейтинг и ограничения

Сайт не распространяет и не хранит электронные версии произведений, а лишь предоставляет доступ к создаваемому пользователями каталогу ссылок на торрент-файлы, которые содержат только списки хеш-сумм

[Профиль] [ЛС]
Показать сообщения:    
Ответить на тему

Текущее время: Сегодня 15:33

Часовой пояс: GMT + 4



Вы не можете начинать темы
Вы не можете отвечать на сообщения
Вы не можете редактировать свои сообщения
Вы не можете удалять свои сообщения
Вы не можете голосовать в опросах
Вы не можете прикреплять файлы к сообщениям
Вы не можете скачивать файлы