Легок на помине (Евгений Абызов) [2014, комедия, фантастика, BDRip-AVC]

Ответить на тему
 
Автор Сообщение

user ®

Стаж: 7 лет 7 месяцев

Сообщений: 20008

Пост Пост: #1 от 11-Апр-2014 09:25

[Цитировать]

Легок на помине- Год выпуска: 2014
Жанр: комедия, фантастика
Продолжительность: 01:22:20
Cубтитры: нет-Режиссер: Евгений Абызов
В ролях: Гарик Харламов, Кристина Асмус, Екатерина Васильева, Александр Ревва, Татьяна Космачева, Владимир Яглыч, Сергей Сафронов, Юрий Кузнецов, Анна Антонова, Александр Самойленко
О фильме: Молодому и успешному риэлтору Павлу, провернувшему немало полулегальных сделок, необходимо получить доверенность на куплю-продажу старинного поместья. А для этого втереться в доверие к владелице недвижимости, одинокой старушке, доживающей свои дни в родовом гнезде. Разработав хитрый план, риелтор-аферист получает заветную бумагу и начинает готовить поместье к продаже, празднуя очередную победу. Но не тут-то было! В отлаженный ход событий вмешиваются высшие силы. С наступлением темноты с Павлом происходят необъяснимые события - он внезапно начинает перемещаться в пространстве...-Релиз:
Автор: Sky™
Качество: BDRip-AVC (источник: / Blu-ray / 1080p)
Формат: MKV
Видео: 1036x434 (2.40:1), 24 fps, X264@L4.1 ~2133 kbps avg, 0.198 bit/pixel
Аудио 48 kHz, AC3 Dolby Digital, 3/2 (L,C,R,l,r) + LFE ch, ~384.00 kbps avg
Размер: 1480.61 Mb (1/3 DVD-R)
Скачать: Семпл-

Кадры из фильма


-

Mi


Формат : Matroska
Версия формата : Version 4 / Version 2
Размер файла : 1,45 Гбайт
Продолжительность : 1 ч. 22 м.
Общий поток : 2514 Кбит/сек
Дата кодирования : UTC 2010-02-22 21:41:31
Программа кодирования : mkvmerge v5.9.0 ('On The Loose') built on Dec 9 2012 15:37:01
Библиотека кодирования : libebml v1.3.0 + libmatroska v1.4.0
Видео
Идентификатор : 1
Формат : AVC
Формат/Информация : Advanced Video Codec
Профиль формата : High@L4.1
Параметр CABAC формата : Нет
Параметр ReFrames формата : 9 кадров
Режим смешивания : Header stripping
Идентификатор кодека : V_MPEG4/ISO/AVC
Продолжительность : 1 ч. 22 м.
Битрейт : 2133 Кбит/сек
Ширина : 1036 пикселей
Высота : 434 пикселя
Соотношение сторон : 2,40:1
Частота кадров : 24,000 кадра/сек
Цветовое пространство : YUV
Субдискретизация насыщенности : 4:2:0
Битовая глубина : 8 бит
Тип развёртки : Прогрессивная
Бит/(Пиксели*Кадры) : 0.198
Размер потока : 1,20 Гбайт (83%)
Заголовок : Легок на помине (2014) BDRip-AVC | HQCLUB
Библиотека кодирования : x264 core 138 r2358 9e941d1
Настройки программы : cabac=0 / ref=9 / deblock=1:-3:-2 / analyse=0x3:0x113 / me=umh / subme=9 / psy=1 / psy_rd=1.00:0.00 / mixed_ref=1 / me_range=32 / chroma_me=1 / trellis=1 / 8x8dct=1 / cqm=0 / deadzone=21,11 / fast_pskip=1 / chroma_qp_offset=-4 / threads=12 / lookahead_threads=3 / sliced_threads=0 / nr=0 / decimate=1 / interlaced=0 / bluray_compat=0 / constrained_intra=0 / bframes=14 / b_pyramid=2 / b_adapt=2 / b_bias=0 / direct=1 / weightb=1 / open_gop=0 / weightp=2 / keyint=240 / keyint_min=24 / scenecut=40 / intra_refresh=0 / rc_lookahead=40 / rc=2pass / mbtree=0 / bitrate=2133 / ratetol=1.0 / qcomp=0.60 / qpmin=0 / qpmax=69 / qpstep=4 / cplxblur=20.0 / qblur=0.5 / vbv_maxrate=62500 / vbv_bufsize=50000 / nal_hrd=none / ip_ratio=1.40 / pb_ratio=1.30 / aq=1:0.90
Язык : Russian
Default : Да
Forced : Нет
Аудио
Идентификатор : 2
Формат : AC-3
Формат/Информация : Audio Coding 3
Расширение режима : CM (complete main)
Режим смешивания : Header stripping
Идентификатор кодека : A_AC3
Продолжительность : 1 ч. 22 м.
Вид битрейта : Постоянный
Битрейт : 384 Кбит/сек
Каналы : 6 каналов
Расположение каналов : Front: L C R, Side: L R, LFE
Частота : 48,0 КГц
Битовая глубина : 16 бит
Метод сжатия : С потерями
Размер потока : 226 Мбайт (15%)
Заголовок : Оригинальная звуковая дорожка
Язык : Russian
Default : Да
Forced : Нет
Меню
00:00:00.000 : en:00:00:00.000
00:00:04.000 : en:00:00:04.000
00:12:24.125 : en:00:12:24.125
00:20:00.083 : en:00:20:00.083
00:30:56.875 : en:00:30:56.875
00:39:17.667 : en:00:39:17.667
00:48:54.333 : en:00:48:54.333
01:00:00.000 : en:01:00:00.000
01:15:38.875 : en:01:15:38.875

-

x264 log


---[Information] [10.04.2014 15:49:00] x264 [info]: frame I:1135 Avg QP:15.65 size: 70505
---[Information] [10.04.2014 15:49:00] x264 [info]: frame P:28712 Avg QP:18.34 size: 21080
---[Information] [10.04.2014 15:49:00] x264 [info]: frame B:88721 Avg QP:20.15 size: 7092
---[Information] [10.04.2014 15:49:00] x264 [info]: consecutive B-frames: 3.7% 3.2% 9.0% 30.3% 19.6% 27.2% 3.5% 1.1% 0.8% 0.4% 0.2% 0.3% 0.2% 0.3% 0.2%
---[Information] [10.04.2014 15:49:00] x264 [info]: mb I I16..4: 8.6% 47.6% 43.8%
---[Information] [10.04.2014 15:49:00] x264 [info]: mb P I16..4: 3.6% 8.4% 5.2% P16..4: 39.5% 21.9% 10.1% 0.0% 0.0% skip:11.3%
---[Information] [10.04.2014 15:49:00] x264 [info]: mb B I16..4: 0.5% 1.0% 0.7% B16..8: 36.3% 11.6% 2.1% direct: 6.7% skip:41.1% L0:41.0% L1:45.5% BI:13.5%
---[Information] [10.04.2014 15:49:00] x264 [info]: 8x8 transform intra:47.7% inter:57.2%
---[Information] [10.04.2014 15:49:00] x264 [info]: coded y,uvDC,uvAC intra: 72.0% 88.4% 69.8% inter: 16.5% 38.8% 7.4%
---[Information] [10.04.2014 15:49:00] x264 [info]: i16 v,h,dc,p: 44% 26% 6% 25%
---[Information] [10.04.2014 15:49:00] x264 [info]: i8 v,h,dc,ddl,ddr,vr,hd,vl,hu: 12% 11% 8% 10% 12% 13% 12% 11% 11%
---[Information] [10.04.2014 15:49:00] x264 [info]: i4 v,h,dc,ddl,ddr,vr,hd,vl,hu: 18% 14% 6% 9% 12% 12% 11% 9% 8%
---[Information] [10.04.2014 15:49:00] x264 [info]: i8c dc,h,v,p: 46% 23% 22% 10%
---[Information] [10.04.2014 15:49:00] x264 [info]: Weighted P-Frames: Y:2.7% UV:1.2%
---[Information] [10.04.2014 15:49:00] x264 [info]: ref P L0: 49.9% 12.4% 16.3% 5.6% 4.8% 3.6% 3.3% 1.9% 1.9% 0.3% 0.0%
---[Information] [10.04.2014 15:49:00] x264 [info]: ref B L0: 72.3% 12.1% 6.3% 3.1% 2.5% 2.2% 1.2% 0.4%
---[Information] [10.04.2014 15:49:00] x264 [info]: ref B L1: 91.3% 8.7%
-
Скачать

Скачать торрент!

Как скачивать? · Что такое торрент? · Рейтинг и ограничения

Сайт не распространяет и не хранит электронные версии произведений, а лишь предоставляет доступ к создаваемому пользователями каталогу ссылок на торрент-файлы, которые содержат только списки хеш-сумм

[Профиль] [ЛС]
Показать сообщения:    
Ответить на тему

Текущее время: Сегодня 03:14

Часовой пояс: GMT + 4



Вы не можете начинать темы
Вы не можете отвечать на сообщения
Вы не можете редактировать свои сообщения
Вы не можете удалять свои сообщения
Вы не можете голосовать в опросах
Вы не можете прикреплять файлы к сообщениям
Вы не можете скачивать файлы