Воздушный маршал / Non-Stop (Хауме Кольет-Серра / Jaume Collet-Serra) [2014, Великобритания, Франция, США, боевик, триллер, детектив, TeleSynch] Dub (TS)

Ответить на тему
 
Автор Сообщение

user ®

Стаж: 7 лет 7 месяцев

Сообщений: 20008

Пост Пост: #1 от 11-Апр-2014 01:35

[Цитировать]

Воздушный маршал / Non-Stop
Страна: Великобритания, Франция, США
Жанр: боевик, триллер, детектив
Год выпуска: 2014
Продолжительность: 01:45:53
Перевод: Профессиональный (дублированный) TS
Cубтитры: нет
Оригинальная аудиодорожка: нет
Режиссер: Хауме Кольет-Серра / Jaume Collet-Serra
В ролях: Лиам Нисон, Джулианна Мур, Скут МакНэйри, Мишель Докери, Нэйт Паркер, Кори Столл, Лупита Нионго, Омар Метуолли, Джейсон Батлер Харнер, Лайнас Роуч
Описание: Межконтинентальный авиарейс. Билл Маркс, воздушный маршал, который обеспечивает безопасность пассажиров, получает сообщения с угрозами от маньяка-террориста. Преступник просчитал все ходы и подставил под обвинение самого спецагента. Теперь Маркс — цель спецслужб США. Ему остается одно: вычислить и обезвредить преступника, спасти пассажиров и свою любовь, которую он обретает на краю гибели. До взрыва остаются считанные минуты…
Доп. информация:
Kinopoisk
IMDB
Сэмпл: http://multi-up.com/966024
Качество видео: TeleSynch
Формат видео: AVI
Видео: Xvid 640x272 29.97fps 790 Kbps
Аудио: MP3 44100Hz stereo 128kbps

MediaInfo

General
Complete name : \Vozdushnyj.marshal.2014.700MB.avi
Format : AVI
Format/Info : Audio Video Interleave
File size : 704 MiB
Duration : 1h 45mn
Overall bit rate : 929 Kbps
Writing application : VirtualDubMod 1.5.10.2 (build 2540/release)
Writing library : VirtualDubMod build 2540/release
Video
ID : 0
Format : MPEG-4 Visual
Format profile : Advanced Simple@L5
Format settings, BVOP : Yes
Format settings, QPel : No
Format settings, GMC : No warppoints
Format settings, Matrix : Default (H.263)
Codec ID : XVID
Codec ID/Hint : XviD
Duration : 1h 45mn
Bit rate : 790 Kbps
Width : 640 pixels
Height : 272 pixels
Display aspect ratio : 2.35:1
Frame rate : 29.970 fps
Color space : YUV
Chroma subsampling : 4:2:0
Bit depth : 8 bits
Scan type : Progressive
Compression mode : Lossy
Bits/(Pixel*Frame) : 0.151
Stream size : 598 MiB (85%)
Writing library : XviD 1.2.1 (UTC 2008-12-04)
Audio
ID : 1
Format : MPEG Audio
Format version : Version 1
Format profile : Layer 3
Codec ID : 55
Codec ID/Hint : MP3
Duration : 1h 45mn
Bit rate mode : Constant
Bit rate : 128 Kbps
Channel count : 2 channels
Sampling rate : 44.1 KHz
Compression mode : Lossy
Stream size : 96.9 MiB (14%)
Alignment : Split accross interleaves
Interleave, duration : 33 ms (1.00 video frame)
Interleave, preload duration : 500 ms

Скриншот c названием фильма

Скриншоты

Скачать

Скачать торрент!

Как скачивать? · Что такое торрент? · Рейтинг и ограничения

Сайт не распространяет и не хранит электронные версии произведений, а лишь предоставляет доступ к создаваемому пользователями каталогу ссылок на торрент-файлы, которые содержат только списки хеш-сумм

[Профиль] [ЛС]
Показать сообщения:    
Ответить на тему

Текущее время: Сегодня 07:06

Часовой пояс: GMT + 4



Вы не можете начинать темы
Вы не можете отвечать на сообщения
Вы не можете редактировать свои сообщения
Вы не можете удалять свои сообщения
Вы не можете голосовать в опросах
Вы не можете прикреплять файлы к сообщениям
Вы не можете скачивать файлы