Далеко-далеко / Далёкая страна / Far and Away (Рон Ховард / Ron Howard) [1992, США, драма, приключения, BDRip 1080p] 2х MVO + 3х DVO + 2х AVO + Sub Rus, Eng + Original Eng

Ответить на тему
 
Автор Сообщение

user ®

Стаж: 7 лет 7 месяцев

Сообщений: 20008

Пост Пост: #1 от 10-Апр-2014 22:25

[Цитировать]

Далеко-далеко / Далёкая страна / Far and Away
Страна: США
Производство: Imagine Films Entertainment, Universal Pictures
Жанр: драма, приключения
Год выпуска: 1992
Продолжительность: 02:19:59
Перевод: Профессиональный (многоголосый закадровый) DVD R5
Перевод 2: Профессиональный (многоголосый закадровый) Первый канал
Перевод 3: Профессиональный (двухголосый закадровый) РЕН ТВ
Перевод 4: Профессиональный (двухголосый закадровый) Премьер
Перевод 5: Профессиональный (двухголосый закадровый) С.Визгунов и девушка
Перевод 6: Авторский (одноголосый закадровый) А.Гаврилов
Перевод 7: Авторский (одноголосый закадровый) Ю.Живов
Cубтитры: русские, английские
Оригинальная аудиодорожка: английский
Режиссер: Рон Ховард / Ron Howard
В ролях: Том Круз, Николь Кидман, Томас Гибсон, Роберт Проски, Барбара Бэбкок, Сирил Кьюcак, Эйлин Поллок, Колм Мини, Дуглас Гиллисон, Мишель Джонсон
Описание: Ещё одна история времен Дикого Запада — и редкая возможность увидеть вместе на экране семейный звездный дуэт — Том Круз и Николь Кидман. Рыжеволосая кудрявая красавица и ее скромный, но не имеющий ни гроша за душой возлюбленный, ирландец, отправляются на заокеанский далекий Запад в поисках счастья. Им приходится преодолеть массу препятствий, но в конце концов удача улыбается герою и он окончательно покоряет сердце своей возлюбленной, влившись в славные ряды пионеров американского запада.
Альтернативное описание: История о молодом ирландском крестьянине Джозефе Доннелли и дочке местного помещика-землевладельца Шэннон Кристи, которые в 1892 году отправились на поиски счастья в Новый свет. В Бостоне Джозеф участвует в кулачных боях за деньги, но решающий поединок проигрывает, и они с Шэннон оказываются на улице. В поисках прибежища они забираются в чужой дом, но вернувшиеся хозяева стреляют в непрошеных гостей. Раненую Шэннон Джозеф приносит в дом, где остановились прибывшие в Америку родители, а сам отправляется на поиски лучшей доли...
Sample
Тип релиза: BDRip 1080p
Контейнер: MKV
Видео: MPEG4 AVC Video, H264, 2,35:1, 16:9, 1920x816, 23,976 fps, 13567 kbps
Аудио: Russian (AC3, 6 ch, 384 kbps, 16 bits, 48.0 KHz) - DVD R5
Аудио 2: Russian (AC3, 2 ch, 192 kbps, 16 bits, 48.0 KHz) - Первый канал
Аудио 3: Russian (AC3, 2 ch, 192 kbps, 16 bits, 48.0 KHz) - РЕН ТВ
Аудио 4: Russian (AC3, 2 ch, 192 kbps, 16 bits, 48.0 KHz) - Премьер Видео Фильм
Аудио 5: Russian (AC3, 6 ch, 384 kbps, 16 bits, 48.0 KHz) - С.Визгунов и девушка
Аудио 6: Russian (AC3, 6 ch, 384 kbps, 16 bits, 48.0 KHz) - А.Гаврилов
Аудио 7: Russian (AC3, 6 ch, 384 kbps, 16 bits, 48.0 KHz) - Ю.Живов
Аудио 8: English (DTS, 6 ch, 1509 kbps, 24 bits, 48.0 KHz) - оригинал
Формат субтитров: softsub (SRT)

MediaInfo

Общее
Уникальный идентификатор : 252946508960928574642193784260775551319 (0xBE4BB9C080AACD5B8EF1234DBE1EA157)
Полное имя : E:\1\Far.and.Away.1992.1080p.BluRay.x264.DTS-WiKi.mkv
Формат : Matroska
Версия формата : Version 4 / Version 2
Размер файла : 16,8 Гбайт
Продолжительность : 2 ч. 19 м.
Общий поток : 17,2 Мбит/сек
Дата кодирования : UTC 2014-04-09 17:51:38
Программа кодирования : mkvmerge v6.1.0 ('Old Devil') built on Mar 2 2013 14:32:37
Библиотека кодирования : libebml v1.3.0 + libmatroska v1.4.0
Видео
Идентификатор : 1
Формат : AVC
Формат/Информация : Advanced Video Codec
Профиль формата : High@L4.1
Параметр CABAC формата : Да
Параметр ReFrames формата : 5 кадров
Идентификатор кодека : V_MPEG4/ISO/AVC
Продолжительность : 2 ч. 19 м.
Битрейт : 13,6 Мбит/сек
Ширина : 1920 пикселей
Высота : 816 пикселей
Соотношение сторон : 2,35:1
Режим частоты кадров : Постоянный
Частота кадров : 23,976 кадра/сек
Цветовое пространство : YUV
Субдискретизация насыщенности : 4:2:0
Битовая глубина : 8 бит
Тип развёртки : Прогрессивная
Бит/(Пиксели*Кадры) : 0.361
Размер потока : 12,9 Гбайт (77%)
Библиотека кодирования : x264 core 136 r2348+704+51 d1baef6 tMod [8-bit@all X86_64]
Настройки программы : cabac=1 / ref=5 / deblock=1:-3:-3 / analyse=0x3:0x133 / me=umh / subme=11 / psy=1 / fade_compensate=0.00 / psy_rd=1.05:0.10 / mixed_ref=1 / me_range=64 / chroma_me=1 / trellis=2 / 8x8dct=1 / cqm=0 / deadzone=21,11 / fast_pskip=0 / chroma_qp_offset=-3 / threads=12 / lookahead_threads=2 / sliced_threads=0 / nr=0 / decimate=0 / interlaced=0 / bluray_compat=0 / constrained_intra=0 / fgo=0 / bframes=8 / b_pyramid=2 / b_adapt=2 / b_bias=0 / direct=3 / weightb=1 / open_gop=0 / weightp=2 / keyint=250 / keyint_min=23 / scenecut=40 / intra_refresh=0 / rc_lookahead=120 / rc=2pass / mbtree=0 / bitrate=13567 / ratetol=1.0 / qcomp=0.75 / qpmin=0:0:0 / qpmax=69:69:69 / qpstep=4 / cplxblur=20.0 / qblur=0.5 / vbv_maxrate=50000 / vbv_bufsize=50000 / nal_hrd=none / ip_ratio=1.40 / pb_ratio=1.30 / aq=1:0.85 / aq-sensitivity=10.00 / aq-factor=1.00:1.00:1.00 / aq2=0 / aq3=0
Язык : English
Default : Да
Forced : Нет
Коэффициенты матрицы : BT.709
Аудио #1
Идентификатор : 2
Формат : AC-3
Формат/Информация : Audio Coding 3
Расширение режима : CM (complete main)
Параметр Endianness формата : Big
Идентификатор кодека : A_AC3
Продолжительность : 2 ч. 19 м.
Вид битрейта : Постоянный
Битрейт : 384 Кбит/сек
Каналы : 6 каналов
Расположение каналов : Front: L C R, Side: L R, LFE
Частота : 48,0 КГц
Битовая глубина : 16 бит
Метод сжатия : С потерями
Размер потока : 385 Мбайт (2%)
Заголовок : MVO DVD
Язык : Russian
Default : Да
Forced : Нет
Аудио #2
Идентификатор : 3
Формат : AC-3
Формат/Информация : Audio Coding 3
Расширение режима : CM (complete main)
Параметр Endianness формата : Big
Идентификатор кодека : A_AC3
Продолжительность : 2 ч. 19 м.
Вид битрейта : Постоянный
Битрейт : 192 Кбит/сек
Каналы : 2 канала
Расположение каналов : Front: L R
Частота : 48,0 КГц
Битовая глубина : 16 бит
Метод сжатия : С потерями
Размер потока : 192 Мбайт (1%)
Заголовок : Первый канал
Язык : Russian
Default : Нет
Forced : Нет
Аудио #3
Идентификатор : 4
Формат : AC-3
Формат/Информация : Audio Coding 3
Расширение режима : CM (complete main)
Параметр Endianness формата : Big
Идентификатор кодека : A_AC3
Продолжительность : 2 ч. 19 м.
Вид битрейта : Постоянный
Битрейт : 192 Кбит/сек
Каналы : 2 канала
Расположение каналов : Front: L R
Частота : 48,0 КГц
Битовая глубина : 16 бит
Метод сжатия : С потерями
Размер потока : 192 Мбайт (1%)
Заголовок : Рен Тв
Язык : Russian
Default : Нет
Forced : Нет
Аудио #4
Идентификатор : 5
Формат : AC-3
Формат/Информация : Audio Coding 3
Расширение режима : CM (complete main)
Параметр Endianness формата : Big
Идентификатор кодека : A_AC3
Продолжительность : 2 ч. 19 м.
Вид битрейта : Постоянный
Битрейт : 192 Кбит/сек
Каналы : 2 канала
Расположение каналов : Front: L R
Частота : 48,0 КГц
Битовая глубина : 16 бит
Метод сжатия : С потерями
Размер потока : 192 Мбайт (1%)
Заголовок : Премьер
Язык : Russian
Default : Нет
Forced : Нет
Аудио #5
Идентификатор : 6
Формат : AC-3
Формат/Информация : Audio Coding 3
Расширение режима : CM (complete main)
Параметр Endianness формата : Big
Идентификатор кодека : A_AC3
Продолжительность : 2 ч. 19 м.
Вид битрейта : Постоянный
Битрейт : 384 Кбит/сек
Каналы : 6 каналов
Расположение каналов : Front: L C R, Side: L R, LFE
Частота : 48,0 КГц
Битовая глубина : 16 бит
Метод сжатия : С потерями
Размер потока : 385 Мбайт (2%)
Заголовок : DVO
Язык : Russian
Default : Нет
Forced : Нет
Аудио #6
Идентификатор : 7
Формат : AC-3
Формат/Информация : Audio Coding 3
Расширение режима : CM (complete main)
Параметр Endianness формата : Big
Идентификатор кодека : A_AC3
Продолжительность : 2 ч. 19 м.
Вид битрейта : Постоянный
Битрейт : 384 Кбит/сек
Каналы : 6 каналов
Расположение каналов : Front: L C R, Side: L R, LFE
Частота : 48,0 КГц
Битовая глубина : 16 бит
Метод сжатия : С потерями
Размер потока : 385 Мбайт (2%)
Заголовок : А.Гаврилов
Язык : Russian
Default : Нет
Forced : Нет
Аудио #7
Идентификатор : 8
Формат : AC-3
Формат/Информация : Audio Coding 3
Расширение режима : CM (complete main)
Параметр Endianness формата : Big
Идентификатор кодека : A_AC3
Продолжительность : 2 ч. 19 м.
Вид битрейта : Постоянный
Битрейт : 384 Кбит/сек
Каналы : 6 каналов
Расположение каналов : Front: L C R, Side: L R, LFE
Частота : 48,0 КГц
Битовая глубина : 16 бит
Метод сжатия : С потерями
Размер потока : 385 Мбайт (2%)
Заголовок : Ю.Живов
Язык : Russian
Default : Нет
Forced : Нет
Аудио #8
Идентификатор : 9
Формат : DTS
Формат/Информация : Digital Theater Systems
Режим : 16
Параметр Endianness формата : Big
Идентификатор кодека : A_DTS
Продолжительность : 2 ч. 19 м.
Вид битрейта : Постоянный
Битрейт : 1509 Кбит/сек
Каналы : 6 каналов
Расположение каналов : Front: L C R, Side: L R, LFE
Частота : 48,0 КГц
Битовая глубина : 24 бит
Метод сжатия : С потерями
Размер потока : 1,48 Гбайт (9%)
Заголовок : оригинал
Язык : English
Default : Нет
Forced : Нет
Текст #1
Идентификатор : 10
Формат : UTF-8
Идентификатор кодека : S_TEXT/UTF8
Идентификатор кодека/Информация : UTF-8 Plain Text
Язык : Russian
Default : Нет
Forced : Нет
Текст #2
Идентификатор : 11
Формат : UTF-8
Идентификатор кодека : S_TEXT/UTF8
Идентификатор кодека/Информация : UTF-8 Plain Text
Язык : English
Default : Нет
Forced : Нет
Меню
00:00:00.000 : en:00:00:00.000
00:13:08.413 : en:00:13:08.413
00:20:44.910 : en:00:20:44.910
00:36:37.320 : en:00:36:37.320
00:42:54.197 : en:00:42:54.197
00:50:01.624 : en:00:50:01.624
00:54:39.776 : en:00:54:39.776
01:05:33.513 : en:01:05:33.513
01:20:53.682 : en:01:20:53.682
01:29:49.676 : en:01:29:49.676
01:36:31.244 : en:01:36:31.244
01:45:59.144 : en:01:45:59.144
02:00:09.702 : en:02:00:09.702
02:08:17.356 : en:02:08:17.356
02:10:19.937 : en:02:10:19.937
02:13:51.315 : en:02:13:51.315

Скриншоты

Внимание!!!Торрент перезалит 10.04.2014 в 08:50 мск. Русские дороги пересинхронизированы согласно требованиям правил. Прошу прощения за причинённые неудобства.
Скачать

Скачать торрент!

Как скачивать? · Что такое торрент? · Рейтинг и ограничения

Сайт не распространяет и не хранит электронные версии произведений, а лишь предоставляет доступ к создаваемому пользователями каталогу ссылок на торрент-файлы, которые содержат только списки хеш-сумм

[Профиль] [ЛС]
Показать сообщения:    
Ответить на тему

Текущее время: Сегодня 13:41

Часовой пояс: GMT + 4



Вы не можете начинать темы
Вы не можете отвечать на сообщения
Вы не можете редактировать свои сообщения
Вы не можете удалять свои сообщения
Вы не можете голосовать в опросах
Вы не можете прикреплять файлы к сообщениям
Вы не можете скачивать файлы