Небесный суд (Алёна Званцова) [2012, Россия, Драма, фэнтези, WEB-DLRip]

Ответить на тему
 
Автор Сообщение

user ®

Стаж: 7 лет 7 месяцев

Сообщений: 20008

Пост Пост: #1 от 10-Апр-2014 22:25

[Цитировать]

Небесный суд- -Страна: Россия, Централ Партнершип
Жанр: Драма, фэнтези
Год выпуска: 2012
Продолжительность: 01:33:32-Режиссер: Алёна Званцова-В ролях: Константин Хабенский, Михаил Пореченков, Ингеборга Дапкунайте, Даниэла Стоянович, Никита Зверев, Анна Михалкова, Евгения Добровольская, Дмитрий Марьянов, Марина Дуксова, Юрий Ицков, Юрий Ермаков, Яна Сексте, Сергей Бызгу, Сергей Барковский, Артур Ваха, Олег Мазуров, Борис Хвошнянский, Игорь Гаспарян, Альберт Афонин, Дмитрий Ермакович, Юрий Орлов, Виталий Коваленко, Ксения Каталымова, Леонид Алимов, Константин Воробьёв-Описание: Адвокаты Андрей и Вениамин — друзья, которых объединяет многое, но работа то и дело ставит их на разные стороны баррикад. Особенность их положения в том, что судебные процессы, в которых они участвуют, происходят не в земной жизни, а в загробной. Они — участники Небесного Суда, решающего, куда направить душу человека после смерти, в Рай или в Ад. В одно из дел неожиданно вмешиваются личные интересы Андрея: на скамью подсудимых попадает человек, сделавший предложение его вдове.-Доп. информация:

Автор рипа: MECHANICAL ENGINEER-Качество видео: WEB-DLRip
Формат видео: AVI
Видео: 704 x 400; 25 fps; 2023 kbps; 0.29 bit/pixel
Аудио: 48 kHz; 2 ch; 192.00 kbps; AC3 Dolby Digital
Размер файла: 1488.92 Mb (1/3 DVD5)

MediaInfo

Format                           : AVI
Format/Info                      : Audio Video Interleave
File size                        : 1.45 GiB
Duration                         : 1h 33mn
Overall bit rate                 : 2 225 Kbps
Movie name                       : Небесный суд (2012)
Director                         : MECHANICAL ENGINEER (WEB-DL 720p)
Writing application              : VirtualDubMod 1.5.10.3 | www.virtualdub-fr.org || (build 2550/release)
Comment                          : 10.04.2014
Video
ID                               : 0
Format                           : MPEG-4 Visual
Format profile                   : Advanced Simple@L5
Format settings, BVOP            : Yes
Format settings, QPel            : No
Format settings, GMC             : No warppoints
Format settings, Matrix          : Custom
Codec ID                         : XVID
Codec ID/Hint                    : XviD
Duration                         : 1h 33mn
Bit rate                         : 2 024 Kbps
Width                            : 704 pixels
Height                           : 400 pixels
Display aspect ratio             : 16:9
Frame rate                       : 25.000 fps
Color space                      : YUV
Chroma subsampling               : 4:2:0
Bit depth                        : 8 bits
Scan type                        : Progressive
Bits/(Pixel*Frame)               : 0.287
Stream size                      : 1.32 GiB (91%)
Writing library                  : XviD 65
Audio
ID                               : 1
Format                           : AC-3
Format/Info                      : Audio Coding 3
Mode extension                   : CM (complete main)
Codec ID                         : 2000
Duration                         : 1h 33mn
Bit rate mode                    : Constant
Bit rate                         : 192 Kbps
Channel(s)                       : 2 channels
Channel positions                : Front: L R
Sampling rate                    : 48.0 KHz
Bit depth                        : 16 bits
Stream size                      : 128 MiB (9%)
Alignment                        : Split accross interleaves
Interleave, duration             : 40 ms (1.00 video frame)
Interleave, preload duration     : 500 ms

Скриншоты превью - увеличение по клику:



ПРИЯТНОГО ПРОСМОТРА!
Скачать

Скачать торрент!

Как скачивать? · Что такое торрент? · Рейтинг и ограничения

Сайт не распространяет и не хранит электронные версии произведений, а лишь предоставляет доступ к создаваемому пользователями каталогу ссылок на торрент-файлы, которые содержат только списки хеш-сумм

[Профиль] [ЛС]
Показать сообщения:    
Ответить на тему

Текущее время: Сегодня 10:10

Часовой пояс: GMT + 4



Вы не можете начинать темы
Вы не можете отвечать на сообщения
Вы не можете редактировать свои сообщения
Вы не можете удалять свои сообщения
Вы не можете голосовать в опросах
Вы не можете прикреплять файлы к сообщениям
Вы не можете скачивать файлы