Кто я для тебя? / Hum Aapke Hain Koun...! (Сурадж Р. Барджатья / Sooraj R. Barjatya) [1994, Индия, Мелодрама, комедия, HDTVRip] [сокращенная ТВ версия] MVO

Ответить на тему
 
Автор Сообщение

user ®

Стаж: 12 лет

Сообщений: 15092

Пост Пост: #1 от 10-Апр-2014 05:55

[Цитировать]

Кто я для тебя? / Hum Aapke Hain Koun...!
-Страна: Индия
Жанр: Мелодрама, комедия
Год выпуска: 1994
Продолжительность: 03:05:00-Перевод: Профессиональный (многоголосый, закадровый)
Субтитры: Нет--Режиссер: Сурадж Р. Барджатья / Sooraj R. Barjatya-В ролях: Салман Кхан, Мадхури Дикcит, Мониш Бехл, Анупам Кхер, Ренука Шахане--Описание: Это история о Преме и Ниши. Они знакомятся на свадьбе Раджеша, дяди Према, и Пуджи, старшей сестры Ниши. У молодых людей с первого взгляда возникает симпатия друг к другу, и вскоре они объясняются в любви. Не за горами свадьба. Однако судьба распоряжается по-иному. Трагически погибает Пуджа. Недавно родившийся малыш остается без мамы. На семейном совете принимается решение, что Ниша должна стать супругой Раджеша и заменить малышу мать. Прем и Ниша готовы пожертвовать своей любовью ради счастья близких. Однако примет ли эту жертву Раджеш, когда узнает об их любви?-- --Качество видео: HDTVRip
Формат видео: AVI-Видео: 720x304 (2.37:1), 25 fps, XviD build 50 ~1504 kbps avg, 0.28 bit/pixel
Аудио: 48 kHz, AC3 Dolby Digital, 2/0 (L,R) ch, ~192 kbps-
-
-Риппер и синхронизация звука: soso4eg
-
-- -
-

Скриншоты:


-

MediaInfo:

General
Complete name : P:\Kto.Ya.Dlya.Tebya.1994.HDTVRip.XviD-soso4eg.avi
Format : AVI
Format/Info : Audio Video Interleave
Format profile : OpenDML
File size : 2.20 GiB
Duration : 3h 5mn
Overall bit rate : 1 704 Kbps
Movie name : Kto.Ya.Dlya.Tebya.1994.HDTVRip.XviD-soso4eg
Writing application : VirtualDubMod 1.5.10.2 (build 2540/release)
Video
ID : 0
Format : MPEG-4 Visual
Format profile : Advanced Simple@L5
Format settings, BVOP : 1
Format settings, QPel : No
Format settings, GMC : No warppoints
Format settings, Matrix : Default (H.263)
Codec ID : XVID
Codec ID/Hint : XviD
Duration : 3h 5mn
Bit rate : 1 499 Kbps
Width : 720 pixels
Height : 304 pixels
Display aspect ratio : 2.35:1
Frame rate : 25.000 fps
Color space : YUV
Chroma subsampling : 4:2:0
Bit depth : 8 bits
Scan type : Progressive
Compression mode : Lossy
Bits/(Pixel*Frame) : 0.274
Stream size : 1.94 GiB (88%)
Writing library : XviD 1.2.1 (UTC 2008-12-04)
Audio
ID : 1
Format : AC-3
Format/Info : Audio Coding 3
Mode extension : CM (complete main)
Format settings, Endianness : Big
Codec ID : 2000
Duration : 3h 5mn
Bit rate mode : Constant
Bit rate : 192 Kbps
Channel(s) : 2 channels
Channel positions : Front: L R
Sampling rate : 48.0 KHz
Bit depth : 16 bits
Compression mode : Lossy
Stream size : 254 MiB (11%)
Alignment : Split accross interleaves
Interleave, duration : 40 ms (1.00 video frame)
Interleave, preload duration : 500 ms
-
Скачать

Скачать торрент! Кто я для тебя? / Hum Aapke Hain Koun...! (Сурадж Р. Барджатья / Sooraj R. Barjatya) [1994, Индия, Мелодрама, комедия, HDTVRip] [сокращенная ТВ версия] MVO

Как скачивать? · Что такое торрент? · Рейтинг и ограничения

Сайт не распространяет и не хранит электронные версии произведений, а лишь предоставляет доступ к создаваемому пользователями каталогу ссылок на торрент-файлы, которые содержат только списки хеш-сумм

[Профиль] [ЛС]
Показать сообщения:    
Ответить на тему

Текущее время: Сегодня 02:11

Часовой пояс: GMT + 4



Вы не можете начинать темы
Вы не можете отвечать на сообщения
Вы не можете редактировать свои сообщения
Вы не можете удалять свои сообщения
Вы не можете голосовать в опросах
Вы не можете прикреплять файлы к сообщениям
Вы не можете скачивать файлы