Кто я для тебя? / Hum Aapke Hain Koun...! (Сурадж Р. Барджатья / Sooraj R. Barjatya) [1994, Индия, Мелодрама, комедия, HDTVRip 720p] [сокращенная ТВ версия] MVO + Original

Ответить на тему
 
Автор Сообщение

user ®

Стаж: 12 лет

Сообщений: 15092

Пост Пост: #1 от 09-Апр-2014 23:35

[Цитировать]

Кто я для тебя? / Hum Aapke Hain Koun...!
-Страна: Индия
Жанр: Мелодрама, комедия
Год выпуска: 1994
Продолжительность: 03:05:00-Оригинальная дорожка: хинди
Перевод: Профессиональный (многоголосый, закадровый)
Субтитры: Нет--Режиссер: Сурадж Р. Барджатья / Sooraj R. Barjatya-В ролях: Салман Кхан, Мадхури Дикcит, Мониш Бехл, Анупам Кхер, Ренука Шахане--Описание: Это история о Преме и Ниши. Они знакомятся на свадьбе Раджеша, дяди Према, и Пуджи, старшей сестры Ниши. У молодых людей с первого взгляда возникает симпатия друг к другу, и вскоре они объясняются в любви. Не за горами свадьба. Однако судьба распоряжается по-иному. Трагически погибает Пуджа. Недавно родившийся малыш остается без мамы. На семейном совете принимается решение, что Ниша должна стать супругой Раджеша и заменить малышу мать. Прем и Ниша готовы пожертвовать своей любовью ради счастья близких. Однако примет ли эту жертву Раджеш, когда узнает об их любви?-- | Сэмпл--Качество видео: HDTVRip (DDR)
Формат видео: MKV-Видео: x264, 1280х544, 24 fps, 3 250 Kbps
Аудио: AC3, 48 KHz, 2ch, 192 Kbps [Rus]
Аудио: AC3, 48 KHz, 2ch, 192 Kbps [Hindi]-Сэмпл / Sample--Рип от DDR (спасибо!)
Cинхронизация звука: soso4eg-
-
- -
-

Скриншоты:


-

MediaInfo:

General
Unique ID : 219611094809481351459414697488346544767 (0xA5378EF0C48BD222A6BF261AA8D07A7F)
Complete name : K:\Релизы\Kto.Ya.Dlya.Tebya.1994.HDTVRip.720p.x264.[DDR ExclusivE]-soso4eg.mkv
Format : Matroska
Format version : Version 4 / Version 2
File size : 4.70 GiB
Duration : 3h 5mn
Overall bit rate mode : Variable
Overall bit rate : 3 636 Kbps
Encoded date : UTC 2014-04-08 14:46:51
Writing application : mkvmerge v6.4.1 ('Omega Point') built on Sep 16 2013 22:05:10
Writing library : libebml v1.3.0 + libmatroska v1.4.1
Video
ID : 1
Format : AVC
Format/Info : Advanced Video Codec
Format profile : High@L4.1
Format settings, CABAC : Yes
Format settings, ReFrames : 3 frames
Codec ID : V_MPEG4/ISO/AVC
Duration : 3h 5mn
Bit rate mode : Variable
Bit rate : 3 250 Kbps
Maximum bit rate : 40.0 Mbps
Width : 1 280 pixels
Height : 544 pixels
Display aspect ratio : 2.35:1
Frame rate mode : Constant
Frame rate : 25.000 fps
Color space : YUV
Chroma subsampling : 4:2:0
Bit depth : 8 bits
Scan type : Progressive
Bits/(Pixel*Frame) : 0.187
Stream size : 4.11 GiB (87%)
Writing library : x264 core 125 r2200 999b753
Encoding settings : cabac=1 / ref=4 / deblock=1:-1:-1 / analyse=0x3:0x113 / me=umh / subme=8 / psy=1 / psy_rd=1.00:0.15 / mixed_ref=1 / me_range=16 / chroma_me=1 / trellis=1 / 8x8dct=1 / cqm=0 / deadzone=21,11 / fast_pskip=1 / chroma_qp_offset=-3 / threads=6 / lookahead_threads=1 / sliced_threads=0 / slices=4 / nr=0 / decimate=1 / interlaced=0 / bluray_compat=0 / constrained_intra=0 / bframes=3 / b_pyramid=1 / b_adapt=2 / b_bias=0 / direct=3 / weightb=1 / open_gop=0 / weightp=0 / keyint=24 / keyint_min=2 / scenecut=40 / intra_refresh=0 / rc_lookahead=24 / rc=2pass / mbtree=1 / bitrate=3250 / ratetol=1.0 / qcomp=0.60 / qpmin=10 / qpmax=51 / qpstep=4 / cplxblur=20.0 / qblur=0.5 / vbv_maxrate=40000 / vbv_bufsize=30000 / nal_hrd=vbr / ip_ratio=1.40 / aq=1:1.00
Language : Hindi
Default : Yes
Forced : No
Audio #1
ID : 2
Format : AC-3
Format/Info : Audio Coding 3
Mode extension : CM (complete main)
Format settings, Endianness : Big
Codec ID : A_AC3
Duration : 3h 5mn
Bit rate mode : Constant
Bit rate : 192 Kbps
Channel(s) : 2 channels
Channel positions : Front: L R
Sampling rate : 48.0 KHz
Bit depth : 16 bits
Compression mode : Lossy
Stream size : 254 MiB (5%)
Title : Формат АВ АС3 2ch -=soso4eg=-
Language : Russian
Default : Yes
Forced : Yes
Audio #2
ID : 3
Format : AC-3
Format/Info : Audio Coding 3
Mode extension : CM (complete main)
Format settings, Endianness : Big
Codec ID : A_AC3
Duration : 3h 5mn
Bit rate mode : Constant
Bit rate : 192 Kbps
Channel(s) : 2 channels
Channel positions : Front: L R
Sampling rate : 48.0 KHz
Bit depth : 16 bits
Compression mode : Lossy
Stream size : 254 MiB (5%)
Title : Hindi AC3 2ch
Language : Hindi
Default : No
Forced : No
Menu
00:00:33.000 : en:SONG 1. Hum Aapke Hain Kaun (Lata Mangeshkar, SP. Balasubramaniam)
00:21:46.000 : en:SONG 2. Wah Wah Ramji (Lata Mangeshkar, SP. Balasubramaniam)
00:36:32.500 : en:SONG 3. Samdhi Samdhan (Lata Mangeshkar, Kumar Sanu)
00:54:53.000 : en:SONG 4. Joote Dedo, Paise Lelo (Lata Mangeshkar, SP. Balasubramaniam)
01:01:38.000 : en:SONG 5. Babul Jo Tumse (Sharda Sinha)
01:11:10.000 : en:SONG 6. Dhiktana - 1 (SP. Balasubramaniam)
01:22:26.000 : en:SONG 7. Mausam Ka Jaadu (Lata Mangeshkar, SP. Balasubramaniam)
01:34:59.000 : en:SONG 8. Didi Tera Devar Deewana (Lata Mangeshkar, SP. Balasubramaniam)
01:52:10.000 : en:SONG 9. Pehla Pehla Pyar (SP. Balasubramaniam)
01:57:29.000 : en:SONG 10. Dhiktana - 2 (Lata Mangeshkar, SP. Balasubramaniam)
02:15:09.000 : en:SONG 11. Maye Ni Maye (Lata Mangeshkar)
02:28:01.000 : en:SONG 12. Lo Chali Main (Lata Mangeshkar)
02:50:46.000 : en:SONG 13. Mujhse Juda Hokar (Lata Mangeshkar, SP. Balasubramaniam)
-
Скачать

Скачать торрент! Кто я для тебя? / Hum Aapke Hain Koun...! (Сурадж Р. Барджатья / Sooraj R. Barjatya) [1994, Индия, Мелодрама, комедия, HDTVRip 720p] [сокращенная ТВ версия] MVO + Original

Как скачивать? · Что такое торрент? · Рейтинг и ограничения

Сайт не распространяет и не хранит электронные версии произведений, а лишь предоставляет доступ к создаваемому пользователями каталогу ссылок на торрент-файлы, которые содержат только списки хеш-сумм

[Профиль] [ЛС]
Показать сообщения:    
Ответить на тему

Текущее время: Сегодня 18:51

Часовой пояс: GMT + 4



Вы не можете начинать темы
Вы не можете отвечать на сообщения
Вы не можете редактировать свои сообщения
Вы не можете удалять свои сообщения
Вы не можете голосовать в опросах
Вы не можете прикреплять файлы к сообщениям
Вы не можете скачивать файлы