Смитти / Smitty (Дэвид М. Эванс / David M. Evans) [2012, США, драма, семейный, HDTV 1080i] MVO

Ответить на тему
 
Автор Сообщение

user ®

Стаж: 7 лет 7 месяцев

Сообщений: 20008

Пост Пост: #1 от 09-Апр-2014 23:35

[Цитировать]

Смитти / Smitty
Страна: США
Жанр: драма, семейный
Год выпуска: 2012
Продолжительность: 01:30:05
Перевод: Профессиональный (многоголосый закадровый)
Cубтитры: нет
Оригинальная аудиодорожка: нет
Режиссер: Дэвид М. Эванс / David M. Evans
В ролях: Брэндон Тайлер Расселл, Фредди Джеймс, Питер Фонда, Мира Сорвино, Луис Госсет мл., Джейсон Лондон, Лолита Давидович, Бу Бу Стюарт, Гэбриэлль Буи, Тори Вайз
Описание: Вредного тринадцатилетнего пацана посылают на всё лето в деревню к дедушке. Дед — упрямый старый простак, не очень рад видеть своего внука. Бен знакомится с собакой, которую выгнали из дома, потому что её прежние хозяева, просто не могут позволить себе прокормить и поддержать домашнее животное. С помощью собаки Бен изучает важность дружбы, семьи и ответственности. И это лето станет самым незабываемым в его жизни.
Сэмпл: http://multi-up.com/965911

Тип релиза: HDTV 1080i
Контейнер: MKV
Видео: MPEG4 (H264) 1920x1080 (16:9) 25fps 5 520 Kbps
Аудио: AC3 5.1 ch 48 kHz 16 bit 448 Kbps

MediaInfo

General
Unique ID : 243908382724898808826573050443562006429 (0xB77F0BB965D01C2FB9B5478AC28CB79D)
Complete name : D:\Smitty.2012.MVO.HDTV.1080i.mkv
Format : Matroska
Format version : Version 4 / Version 2
File size : 3.83 GiB
Duration : 1h 30mn
Overall bit rate : 6 089 Kbps
Movie name : SharkN73 04.04.2014
Encoded date : UTC 2014-04-04 16:52:21
Writing application : mkvmerge v6.8.0 ('Theme for Great Cities') 64bit built on Mar 2 2014 21:34:26
Writing library : libebml v1.3.0 + libmatroska v1.4.1
Video
ID : 1
Format : AVC
Format/Info : Advanced Video Codec
Format profile : High@L4.0
Format settings, CABAC : Yes
Format settings, ReFrames : 3 frames
Codec ID : V_MPEG4/ISO/AVC
Duration : 1h 30mn
Bit rate : 5 520 Kbps
Width : 1 920 pixels
Height : 1 080 pixels
Display aspect ratio : 16:9
Frame rate mode : Constant
Frame rate : 25.000 fps
Standard : Component
Color space : YUV
Chroma subsampling : 4:2:0
Bit depth : 8 bits
Scan type : Interlaced
Scan order : Top Field First
Bits/(Pixel*Frame) : 0.106
Stream size : 3.47 GiB (91%)
Language : English
Default : Yes
Forced : No
Color primaries : BT.709
Transfer characteristics : BT.709
Matrix coefficients : BT.709
Audio
ID : 2
Format : AC-3
Format/Info : Audio Coding 3
Mode extension : CM (complete main)
Format settings, Endianness : Big
Codec ID : A_AC3
Duration : 1h 30mn
Bit rate mode : Constant
Bit rate : 448 Kbps
Channel(s) : 2 channels
Channel(s)_Original : 6 channels
Channel positions : Front: L C R, Side: L R, LFE
Sampling rate : 48.0 KHz
Bit depth : 16 bits
Compression mode : Lossy
Delay relative to video : 6ms
Stream size : 289 MiB (7%)
Language : Russian
Default : Yes
Forced : No
Скачать

Скачать торрент!

Как скачивать? · Что такое торрент? · Рейтинг и ограничения

Сайт не распространяет и не хранит электронные версии произведений, а лишь предоставляет доступ к создаваемому пользователями каталогу ссылок на торрент-файлы, которые содержат только списки хеш-сумм

[Профиль] [ЛС]
Показать сообщения:    
Ответить на тему

Текущее время: Сегодня 20:10

Часовой пояс: GMT + 4



Вы не можете начинать темы
Вы не можете отвечать на сообщения
Вы не можете редактировать свои сообщения
Вы не можете удалять свои сообщения
Вы не можете голосовать в опросах
Вы не можете прикреплять файлы к сообщениям
Вы не можете скачивать файлы