Снегурочка (Дмитрий Светозаров) [2014, Драма, Мелодрама, Триллер, DVDRip]

Ответить на тему
 
Автор Сообщение

user ®

Стаж: 7 лет 7 месяцев

Сообщений: 20008

Пост Пост: #1 от 09-Апр-2014 23:35

[Цитировать]

Снегурочка
Жанр: Драма, Мелодрама, Триллер
Год выпуска: 2014
Продолжительность: 01:44:11
Режиссёр: Дмитрий Светозаров
В ролях: Валерий Дегтярь, Анна Хилькевич, Ирина Полянская, Данила Ануфриев, Алиса Миронова, Рудольф Фурманов, Евгений Катаев, Наталья Кутасова, Вадим Лобанов, Лев Елисеев, Олег Пальмов, Сергей Мардарь, Михаил Трясоруков, Олег Зорин, Алексей Чардымский
Описание: В одночасье испарилось и потеряло цену все, к чему стремился и чего достиг за неполные сорок лет жизни Алексей Нечаев, руководитель, лауреат, профессор, член государственных комиссий, фондов, советов при президенте, включая дом и семью. Имя этому наваждению - запретная любовь. Влюбившись в девушку, годящуюся ему в дочери, внешне обаятельную, по-детски дурашливую и наивную, главный герой, сам того не замечая, медленно разрушает свою жизнь…
Доп. информация:
Сэмпл: http://multi-up.com/965902
Качество видео: DVDRip
Формат видео: AVI
Видео: XVID, 720x400 (16:9), 25,000 кадров/сек, 1549 Кбит/сек
Аудио: AC-3, 48,0 КГц, 448 Кбит/сек (6 каналов)

MediaInfo

Формат : AVI
Формат/Информация : Audio Video Interleave
Размер файла : 1,46 Гбайт
Продолжительность : 1 ч. 44 м.
Общий поток : 2007 Кбит/сек
Программа кодирования : VirtualDubMod 1.5.10.3 | www.virtualdub-fr.org || (build 2550/release)
Библиотека кодирования : VirtualDubMod build 2550/release
Видео
Идентификатор : 0
Формат : MPEG-4 Visual
Профиль формата : Advanced Simple@L5
Параметр BVOP формата : 2
Параметр QPel формата : Нет
Параметр GMC формата : Без точки перехода
Параметр матрицы формата : Default (MPEG)
Идентификатор кодека : XVID
Идентификатор кодека/Подсказка : XviD
Продолжительность : 1 ч. 44 м.
Битрейт : 1549 Кбит/сек
Ширина : 720 пикселей
Высота : 400 пикселей
Соотношение сторон : 16:9
Частота кадров : 25,000 кадров/сек
Цветовое пространство : YUV
Субдискретизация насыщенности : 4:2:0
Битовая глубина : 8 бит
Тип развёртки : Прогрессивная
Метод сжатия : С потерями
Бит/(Пиксели*Кадры) : 0.215
Размер потока : 1,13 Гбайт (77%)
Библиотека кодирования : XviD 1.2.1 (UTC 2008-12-04)
Аудио
Идентификатор : 1
Формат : AC-3
Формат/Информация : Audio Coding 3
Расширение режима : CM (complete main)
Параметр Endianness формата : Big
Идентификатор кодека : 2000
Продолжительность : 1 ч. 44 м.
Вид битрейта : Постоянный
Битрейт : 448 Кбит/сек
Каналы : 6 каналов
Расположение каналов : Front: L C R, Side: L R, LFE
Частота : 48,0 КГц
Битовая глубина : 16 бит
Метод сжатия : С потерями
Размер потока : 334 Мбайт (22%)
Выравнивание : Разделение по промежуткам

Скриншот c названием фильма

Скриншоты

Скачать

Скачать торрент!

Как скачивать? · Что такое торрент? · Рейтинг и ограничения

Сайт не распространяет и не хранит электронные версии произведений, а лишь предоставляет доступ к создаваемому пользователями каталогу ссылок на торрент-файлы, которые содержат только списки хеш-сумм

[Профиль] [ЛС]
Показать сообщения:    
Ответить на тему

Текущее время: Сегодня 18:38

Часовой пояс: GMT + 4



Вы не можете начинать темы
Вы не можете отвечать на сообщения
Вы не можете редактировать свои сообщения
Вы не можете удалять свои сообщения
Вы не можете голосовать в опросах
Вы не можете прикреплять файлы к сообщениям
Вы не можете скачивать файлы