Теория заговора / Conspiracy Theory (Ричард Доннер / Richard Donner) [1997, США, боевик, триллер, мелодрама, криминал, детектив, Blu-ray disc] [CEE] Dub (CEE) + Sub Rus, Eng + Original Eng

Ответить на тему
 
Автор Сообщение

user ®

Стаж: 7 лет 7 месяцев

Сообщений: 20008

Пост Пост: #1 от 09-Апр-2014 00:40

[Цитировать]

Теория заговора / Conspiracy Theory-- Страна: США
Жанр: боевик, триллер, мелодрама, криминал, детектив
Год выпуска: 1997
Продолжительность: 02:15:17
Перевод: Профессиональный (дублированный) CEE
Cубтитры: русские, английские
Оригинальная аудиодорожка: английский-Режиссер: Ричард Доннер / Richard Donner
В ролях: Мэл Гибсон, Джулия Робертс, Патрик Стюарт, Силк Козарт, Стив Кэхэн, Терри Александр, Алекс МакАртур, Род МакЛахлан, Майкл Поттс, Джим Стерлинг-Описание: Нью-йоркский таксист Джерри Флетчер собирает и анализирует то, что слышит от пассажиров, видит в газетах и на улицах. Он помешан на теории заговора и считает, что многие события в мире напрямую связаны с деятельностью «теневого» правительства. Например, запуск шаттла он считает попыткой НАСА убить президента с помощью сейсмического оружия. Позже, в подтверждение его теории, происходит землетрясение в стране, которую посещает президент.
Джерри тайно влюблён в помощника районного прокурора Элис Саттон. Одна из теорий Джерри оказывается близкой к правде. Некая структура похищает его, чтобы узнать, откуда он узнал об их существовании, и устранить его, но Джерри удаётся бежать.-
-Меню: статичное
Тип релиза: Blu-ray disc
Контейнер: BDMV
Видео: AVC MPEG-4, 1920x1080, 25941 kbps, 23,976 fps
Аудио 01: DTS-HD Master Audio 5.1 ch / 48 kHz / 4284 kbps / 24-bit (DTS Core: 5.1 / 48 kHz / 1509 kbps / 24-bit) - English
Аудио 02: Dolby Digital Audio 5.1 ch / 48 kHz / 640 kbps / DN -4dB - French
Аудио 03: Dolby Digital Audio 5.1 ch / 48 kHz / 640 kbps / DN -4dB - German
Аудио 04: Dolby Digital Audio 5.1 ch / 48 kHz / 640 kbps / DN -4dB - Italian
Аудио 05: Dolby Digital Audio 2.0 ch / 48 kHz / 192 kbps / DN -4dB / Dolby Surround - Spanish
Аудио 06: Dolby Digital Audio 2.0 ch / 48 kHz / 192 kbps / DN -4dB / Dolby Surround - Portuguese
Аудио 07: Dolby Digital Audio 2.0 ch / 48 kHz / 192 kbps / DN -4dB / Dolby Surround - Czech
Аудио 08: Dolby Digital Audio 5.1 ch / 48 kHz / 448 kbps / DN -4dB - Hungarian
Аудио 09: Dolby Digital Audio 5.1 ch / 48 kHz / 448 kbps / DN -4dB - Polish
Аудио 10: Dolby Digital Audio 5.1 ch / 48 kHz / 640 kbps / DN -4dB - Russian
Аудио 11: Dolby Digital Audio 5.1 ch / 48 kHz / 640 kbps / DN -4dB - Japanese
Формат субтитров: prerendered (Blu-ray/PGS/SUP) - Английские, Японские, Французские, Немецкие, Итальянские, Корейские, Испанские,
Португальские, Чешские, Венгерские, Польские, Русские-

BDInfo

Код:
Disc Title: Conspiracy.Theory.1997
Disc Size: 38 440 975 993 bytes
Protection: AACS
BD-Java: No
BDInfo: 0.5.8
Notes:
BDINFO HOME:
Cinema Squid
http://www.cinemasquid.com/blu-ray/tools/bdinfo
INCLUDES FORUMS REPORT FOR:
AVS Forum Blu-ray Audio and Video Specifications Thread
http://www.avsforum.com/avs-vb/showthread.php?t=1155731
********************
PLAYLIST: 00100.MPLS
********************
Total   Video
Title                                                           Codec   Length  Movie Size      Disc Size       Bitrate Bitrate Main Audio Track                          Secondary Audio Track
-----                                                           ------  ------- --------------  --------------  ------- ------- ------------------                        ---------------------
00100.MPLS                                                      AVC     2:15:17 38 010 961 920  38 440 975 993  37,46   25,94   DTS-HD Master 5.1 4284Kbps (48kHz/24-bit)
[code]
DISC INFO:
Disc Title:     Conspiracy.Theory.1997
Disc Size:      38 440 975 993 bytes
Protection:     AACS
BD-Java:        No
BDInfo:         0.5.8
PLAYLIST REPORT:
Name:                   00100.MPLS
Length:                 2:15:17.442 (h:m:s.ms)
Size:                   38 010 961 920 bytes
Total Bitrate:          37,46 Mbps
(*) Indicates included stream hidden by this playlist.
VIDEO:
Codec                   Bitrate             Description
-----                   -------             -----------
MPEG-4 AVC Video        25941 kbps          1080p / 23,976 fps / 16:9 / High Profile 4.1
AUDIO:
Codec                           Language        Bitrate         Description
-----                           --------        -------         -----------
DTS-HD Master Audio             English         4284 kbps       5.1 / 48 kHz / 4284 kbps / 24-bit (DTS Core: 5.1 / 48 kHz / 1509 kbps / 24-bit)
Dolby Digital Audio             French          640 kbps        5.1 / 48 kHz / 640 kbps / DN -4dB
Dolby Digital Audio             German          640 kbps        5.1 / 48 kHz / 640 kbps / DN -4dB
Dolby Digital Audio             Italian         640 kbps        5.1 / 48 kHz / 640 kbps / DN -4dB
Dolby Digital Audio             Spanish         192 kbps        2.0 / 48 kHz / 192 kbps / DN -4dB / Dolby Surround
Dolby Digital Audio             Portuguese      192 kbps        2.0 / 48 kHz / 192 kbps / DN -4dB / Dolby Surround
Dolby Digital Audio             Czech           192 kbps        2.0 / 48 kHz / 192 kbps / DN -4dB / Dolby Surround
Dolby Digital Audio             Hungarian       448 kbps        5.1 / 48 kHz / 448 kbps / DN -4dB
Dolby Digital Audio             Polish          448 kbps        5.1 / 48 kHz / 448 kbps / DN -4dB
Dolby Digital Audio             Russian         640 kbps        5.1 / 48 kHz / 640 kbps / DN -4dB
* Dolby Digital Audio           Japanese        640 kbps        5.1 / 48 kHz / 640 kbps / DN -4dB
SUBTITLES:
Codec                           Language        Bitrate         Description
-----                           --------        -------         -----------
* Presentation Graphics         Japanese        19,138 kbps
Presentation Graphics           English         29,911 kbps
Presentation Graphics           French          22,477 kbps
Presentation Graphics           German          26,854 kbps
Presentation Graphics           Italian         26,190 kbps
Presentation Graphics           Korean          19,962 kbps
Presentation Graphics           Spanish         24,404 kbps
Presentation Graphics           Portuguese      24,464 kbps
Presentation Graphics           Czech           21,801 kbps
Presentation Graphics           Hungarian       21,441 kbps
Presentation Graphics           Polish          17,430 kbps
Presentation Graphics           Russian         22,959 kbps
* Presentation Graphics         Japanese        0,618 kbps
FILES:
Name            Time In         Length          Size            Total Bitrate
----            -------         ------          ----            -------------
00029.M2TS      0:00:00.000     2:15:17.442     38 010 961 920  37 461
CHAPTERS:
Number          Time In         Length          Avg Video Rate  Max 1-Sec Rate  Max 1-Sec Time  Max 5-Sec Rate  Max 5-Sec Time  Max 10Sec Rate  Max 10Sec Time  Avg Frame Size  Max Frame Size  Max Frame Time
------          -------         ------          --------------  --------------  --------------  --------------  --------------  --------------  --------------  --------------  --------------  --------------
1               0:00:00.000     0:04:01.824     25 829 kbps     41 996 kbps     00:02:29.190    34 742 kbps     00:02:35.154    34 025 kbps     00:02:29.023    134 638 bytes   564 433 bytes   00:00:54.054
2               0:04:01.824     0:03:00.138     28 953 kbps     46 038 kbps     00:05:56.898    36 093 kbps     00:05:54.187    33 484 kbps     00:04:56.629    150 946 bytes   625 164 bytes   00:06:17.251
3               0:07:01.963     0:04:31.896     25 369 kbps     38 235 kbps     00:11:32.858    33 637 kbps     00:10:11.694    31 742 kbps     00:10:10.735    132 262 bytes   565 824 bytes   00:10:24.623
4               0:11:33.859     0:05:12.812     25 485 kbps     45 400 kbps     00:15:06.363    34 010 kbps     00:15:06.363    30 418 kbps     00:15:01.984    132 869 bytes   554 975 bytes   00:11:37.196
5               0:16:46.672     0:03:01.639     27 131 kbps     36 612 kbps     00:17:59.745    31 225 kbps     00:17:56.575    30 169 kbps     00:17:59.077    141 447 bytes   494 089 bytes   00:18:57.678
6               0:19:48.312     0:02:56.551     28 393 kbps     37 832 kbps     00:20:32.356    33 542 kbps     00:20:32.356    31 704 kbps     00:20:32.397    148 031 bytes   504 395 bytes   00:21:30.789
7               0:22:44.863     0:02:28.064     28 493 kbps     41 600 kbps     00:23:13.183    33 685 kbps     00:24:49.362    31 344 kbps     00:24:48.028    148 548 bytes   527 274 bytes   00:23:23.318
8               0:25:12.928     0:03:40.470     25 706 kbps     47 339 kbps     00:28:26.496    33 962 kbps     00:28:26.287    31 113 kbps     00:25:35.992    134 018 bytes   759 965 bytes   00:28:49.310
9               0:28:53.398     0:03:10.273     25 341 kbps     51 039 kbps     00:28:55.567    34 170 kbps     00:28:54.274    28 506 kbps     00:28:54.858    132 118 bytes   698 572 bytes   00:28:59.112
10              0:32:03.671     0:02:44.747     27 616 kbps     36 796 kbps     00:32:07.592    31 197 kbps     00:33:00.561    30 117 kbps     00:32:55.556    143 979 bytes   503 824 bytes   00:33:25.920
11              0:34:48.419     0:04:12.168     28 062 kbps     38 484 kbps     00:36:04.996    33 864 kbps     00:36:05.037    32 721 kbps     00:36:00.658    146 302 bytes   523 276 bytes   00:36:09.208
12              0:39:00.588     0:04:20.593     28 071 kbps     39 867 kbps     00:39:50.429    34 695 kbps     00:40:16.413    32 853 kbps     00:40:11.534    146 348 bytes   542 671 bytes   00:40:18.833
13              0:43:21.181     0:04:30.144     28 004 kbps     39 412 kbps     00:46:54.603    32 310 kbps     00:46:54.102    31 433 kbps     00:46:53.435    146 001 bytes   507 396 bytes   00:46:30.871
14              0:47:51.326     0:03:18.323     25 589 kbps     41 360 kbps     00:51:01.767    30 833 kbps     00:50:42.539    28 487 kbps     00:49:25.379    133 409 bytes   481 429 bytes   00:47:54.663
15              0:51:09.649     0:08:18.623     28 437 kbps     37 888 kbps     00:52:51.626    33 027 kbps     00:59:09.379    32 300 kbps     00:59:05.792    148 260 bytes   554 128 bytes   00:54:43.363
16              0:59:28.273     0:03:37.759     26 805 kbps     43 750 kbps     01:00:05.935    33 665 kbps     01:01:35.650    31 760 kbps     01:00:05.268    139 747 bytes   695 214 bytes   01:00:25.788
17              1:03:06.032     0:02:49.627     24 931 kbps     33 961 kbps     01:04:42.169    30 314 kbps     01:04:41.502    29 078 kbps     01:04:42.003    129 981 bytes   482 003 bytes   01:05:03.691
18              1:05:55.660     0:02:38.032     23 054 kbps     30 669 kbps     01:06:03.834    25 605 kbps     01:05:59.747    25 057 kbps     01:05:58.079    120 193 bytes   408 439 bytes   01:08:31.232
19              1:08:33.692     0:05:57.899     24 796 kbps     41 627 kbps     01:09:30.207    31 700 kbps     01:08:51.168    29 668 kbps     01:08:46.330    129 277 bytes   549 423 bytes   01:13:33.075
20              1:14:31.592     0:01:14.657     26 763 kbps     44 164 kbps     01:15:17.596    33 104 kbps     01:15:17.596    31 878 kbps     01:15:17.596    139 532 bytes   555 312 bytes   01:15:17.679
21              1:15:46.250     0:04:26.057     27 390 kbps     42 604 kbps     01:16:22.869    33 654 kbps     01:19:46.740    33 226 kbps     01:19:41.777    142 801 bytes   495 707 bytes   01:19:36.188
22              1:20:12.307     0:04:22.136     25 780 kbps     37 862 kbps     01:22:02.208    31 673 kbps     01:22:02.208    29 704 kbps     01:24:15.925    134 407 bytes   489 815 bytes   01:22:02.250
23              1:24:34.444     0:07:03.089     26 313 kbps     34 052 kbps     01:29:58.393    31 521 kbps     01:27:41.464    29 367 kbps     01:27:41.506    137 186 bytes   510 731 bytes   01:25:02.013
24              1:31:37.533     0:08:13.743     25 820 kbps     48 205 kbps     01:35:15.584    32 951 kbps     01:35:15.543    30 340 kbps     01:35:06.992    134 616 bytes   633 771 bytes   01:36:38.626
25              1:39:51.276     0:05:27.160     22 275 kbps     30 510 kbps     01:41:18.906    25 427 kbps     01:41:18.781    25 126 kbps     01:41:18.697    116 130 bytes   422 926 bytes   01:40:16.260
26              1:45:18.437     0:05:58.900     24 986 kbps     40 783 kbps     01:47:20.851    32 786 kbps     01:45:42.919    31 855 kbps     01:49:11.962    130 266 bytes   491 446 bytes   01:45:28.030
27              1:51:17.337     0:06:16.000     24 100 kbps     37 703 kbps     01:51:27.055    31 185 kbps     01:53:02.942    30 319 kbps     01:53:01.274    125 646 bytes   515 226 bytes   01:52:33.163
28              1:57:33.337     0:03:34.213     24 956 kbps     37 470 kbps     01:59:27.285    33 170 kbps     01:59:18.025    32 865 kbps     01:59:18.192    130 110 bytes   442 838 bytes   02:00:14.665
29              2:01:07.551     0:01:49.400     25 200 kbps     35 348 kbps     02:02:14.618    30 696 kbps     02:02:36.432    28 193 kbps     02:02:31.635    131 382 bytes   392 672 bytes   02:02:40.978
30              2:02:56.952     0:04:07.747     24 262 kbps     37 699 kbps     02:04:30.671    28 999 kbps     02:05:51.585    27 796 kbps     02:05:51.502    126 493 bytes   643 425 bytes   02:06:00.761
31              2:07:04.700     0:02:45.456     25 437 kbps     35 602 kbps     02:07:32.853    31 016 kbps     02:07:28.849    29 722 kbps     02:07:23.844    132 619 bytes   574 947 bytes   02:07:58.671
32              2:09:50.157     0:05:27.285     23 484 kbps     39 951 kbps     02:15:11.228    31 097 kbps     02:10:45.796    30 644 kbps     02:10:40.833    122 450 bytes   536 138 bytes   02:15:11.478
STREAM DIAGNOSTICS:
File            PID             Type            Codec           Language                Seconds                 Bitrate                 Bytes           Packets
----            ---             ----            -----           --------                --------------          --------------          -------------   -----
00029.M2TS      4113 (0x1011)   0x1B            AVC                                     8117,318                25 941                  26 321 890 977  143 168 477
00029.M2TS      4352 (0x1100)   0x86            DTS-HD MA       eng (English)           8117,318                4 284                   4 347 155 600   24 889 730
00029.M2TS      4353 (0x1101)   0x81            AC3             fra (French)            8117,318                640                     649 530 880     3 805 845
00029.M2TS      4354 (0x1102)   0x81            AC3             deu (German)            8117,318                640                     649 530 880     3 805 845
00029.M2TS      4355 (0x1103)   0x81            AC3             ita (Italian)           8117,318                640                     649 530 880     3 805 845
00029.M2TS      4356 (0x1104)   0x81            AC3             spa (Spanish)           8117,318                192                     194 859 264     1 268 615
00029.M2TS      4357 (0x1105)   0x81            AC3             por (Portuguese)        8117,318                192                     194 859 264     1 268 615
00029.M2TS      4358 (0x1106)   0x81            AC3             ces (Czech)             8117,318                192                     194 859 264     1 268 615
00029.M2TS      4359 (0x1107)   0x81            AC3             hun (Hungarian)         8117,318                448                     454 671 616     2 537 230
00029.M2TS      4360 (0x1108)   0x81            AC3             pol (Polish)            8117,318                448                     454 671 616     2 537 230
00029.M2TS      4361 (0x1109)   0x81            AC3             rus (Russian)           8117,318                640                     649 530 880     3 805 845
00029.M2TS      4362 (0x110A)   0x81            AC3             jpn (Japanese)          8117,318                640                     649 530 880     3 805 845
00029.M2TS      4608 (0x1200)   0x90            PGS             jpn (Japanese)          8117,318                19                      19 418 600      116 010
00029.M2TS      4609 (0x1201)   0x90            PGS             eng (English)           8117,318                30                      30 350 293      175 571
00029.M2TS      4610 (0x1202)   0x90            PGS             fra (French)            8117,318                22                      22 806 981      132 934
00029.M2TS      4611 (0x1203)   0x90            PGS             deu (German)            8117,318                27                      27 248 710      158 459
00029.M2TS      4612 (0x1204)   0x90            PGS             ita (Italian)           8117,318                26                      26 574 735      154 779
00029.M2TS      4613 (0x1205)   0x90            PGS             kor (Korean)            8117,318                20                      20 254 616      119 839
00029.M2TS      4614 (0x1206)   0x90            PGS             spa (Spanish)           8117,318                24                      24 761 878      143 790
00029.M2TS      4615 (0x1207)   0x90            PGS             por (Portuguese)        8117,318                24                      24 823 119      144 590
00029.M2TS      4616 (0x1208)   0x90            PGS             ces (Czech)             8117,318                22                      22 120 614      129 325
00029.M2TS      4617 (0x1209)   0x90            PGS             hun (Hungarian)         8117,318                21                      21 756 195      127 534
00029.M2TS      4618 (0x120A)   0x90            PGS             pol (Polish)            8117,318                17                      17 685 646      104 593
00029.M2TS      4619 (0x120B)   0x90            PGS             rus (Russian)           8117,318                23                      23 296 274      135 631
00029.M2TS      4620 (0x120C)   0x90            PGS             jpn (Japanese)          8117,318                1                       626 713         4 573
QUICK SUMMARY:
Disc Title: Conspiracy.Theory.1997
Disc Size: 38 440 975 993 bytes
Protection: AACS
BD-Java: No
Playlist: 00100.MPLS
Size: 38 010 961 920 bytes
Length: 2:15:17.442
Total Bitrate: 37,46 Mbps
Video: MPEG-4 AVC Video / 25941 kbps / 1080p / 23,976 fps / 16:9 / High Profile 4.1
Audio: English / DTS-HD Master Audio / 5.1 / 48 kHz / 4284 kbps / 24-bit (DTS Core: 5.1 / 48 kHz / 1509 kbps / 24-bit)
Audio: French / Dolby Digital Audio / 5.1 / 48 kHz / 640 kbps / DN -4dB
Audio: German / Dolby Digital Audio / 5.1 / 48 kHz / 640 kbps / DN -4dB
Audio: Italian / Dolby Digital Audio / 5.1 / 48 kHz / 640 kbps / DN -4dB
Audio: Spanish / Dolby Digital Audio / 2.0 / 48 kHz / 192 kbps / DN -4dB / Dolby Surround
Audio: Portuguese / Dolby Digital Audio / 2.0 / 48 kHz / 192 kbps / DN -4dB / Dolby Surround
Audio: Czech / Dolby Digital Audio / 2.0 / 48 kHz / 192 kbps / DN -4dB / Dolby Surround
Audio: Hungarian / Dolby Digital Audio / 5.1 / 48 kHz / 448 kbps / DN -4dB
Audio: Polish / Dolby Digital Audio / 5.1 / 48 kHz / 448 kbps / DN -4dB
Audio: Russian / Dolby Digital Audio / 5.1 / 48 kHz / 640 kbps / DN -4dB
* Audio: Japanese / Dolby Digital Audio / 5.1 / 48 kHz / 640 kbps / DN -4dB
* Subtitle: Japanese / 19,138 kbps
Subtitle: English / 29,911 kbps
Subtitle: French / 22,477 kbps
Subtitle: German / 26,854 kbps
Subtitle: Italian / 26,190 kbps
Subtitle: Korean / 19,962 kbps
Subtitle: Spanish / 24,404 kbps
Subtitle: Portuguese / 24,464 kbps
Subtitle: Czech / 21,801 kbps
Subtitle: Hungarian / 21,441 kbps
Subtitle: Polish / 17,430 kbps
Subtitle: Russian / 22,959 kbps
* Subtitle: Japanese / 0,618 kbps
********************
PLAYLIST: 00101.MPLS
********************
Total   Video
Title                                                           Codec   Length  Movie Size      Disc Size       Bitrate Bitrate Main Audio Track                          Secondary Audio Track
-----                                                           ------  ------- --------------  --------------  ------- ------- ------------------                        ---------------------
00101.MPLS                                                      AVC     2:15:17 38 010 961 920  38 440 975 993  37,46   25,94   DTS-HD Master 5.1 4284Kbps (48kHz/24-bit)
DISC INFO:
Disc Title:     Conspiracy.Theory.1997
Disc Size:      38 440 975 993 bytes
Protection:     AACS
BD-Java:        No
BDInfo:         0.5.8
PLAYLIST REPORT:
Name:                   00101.MPLS
Length:                 2:15:17.442 (h:m:s.ms)
Size:                   38 010 961 920 bytes
Total Bitrate:          37,46 Mbps
(*) Indicates included stream hidden by this playlist.
VIDEO:
Codec                   Bitrate             Description
-----                   -------             -----------
MPEG-4 AVC Video        25941 kbps          1080p / 23,976 fps / 16:9 / High Profile 4.1
AUDIO:
Codec                           Language        Bitrate         Description
-----                           --------        -------         -----------
DTS-HD Master Audio             English         4284 kbps       5.1 / 48 kHz / 4284 kbps / 24-bit (DTS Core: 5.1 / 48 kHz / 1509 kbps / 24-bit)
* Dolby Digital Audio           French          640 kbps        5.1 / 48 kHz / 640 kbps / DN -4dB
* Dolby Digital Audio           German          640 kbps        5.1 / 48 kHz / 640 kbps / DN -4dB
* Dolby Digital Audio           Italian         640 kbps        5.1 / 48 kHz / 640 kbps / DN -4dB
* Dolby Digital Audio           Spanish         192 kbps        2.0 / 48 kHz / 192 kbps / DN -4dB / Dolby Surround
* Dolby Digital Audio           Portuguese      192 kbps        2.0 / 48 kHz / 192 kbps / DN -4dB / Dolby Surround
* Dolby Digital Audio           Czech           192 kbps        2.0 / 48 kHz / 192 kbps / DN -4dB / Dolby Surround
* Dolby Digital Audio           Hungarian       448 kbps        5.1 / 48 kHz / 448 kbps / DN -4dB
* Dolby Digital Audio           Polish          448 kbps        5.1 / 48 kHz / 448 kbps / DN -4dB
* Dolby Digital Audio           Russian         640 kbps        5.1 / 48 kHz / 640 kbps / DN -4dB
Dolby Digital Audio             Japanese        640 kbps        5.1 / 48 kHz / 640 kbps / DN -4dB
SUBTITLES:
Codec                           Language        Bitrate         Description
-----                           --------        -------         -----------
Presentation Graphics           Japanese        19,138 kbps
Presentation Graphics           English         29,911 kbps
* Presentation Graphics         French          22,477 kbps
* Presentation Graphics         German          26,854 kbps
* Presentation Graphics         Italian         26,190 kbps
* Presentation Graphics         Korean          19,962 kbps
* Presentation Graphics         Spanish         24,404 kbps
* Presentation Graphics         Portuguese      24,464 kbps
* Presentation Graphics         Czech           21,801 kbps
* Presentation Graphics         Hungarian       21,441 kbps
* Presentation Graphics         Polish          17,430 kbps
* Presentation Graphics         Russian         22,959 kbps
Presentation Graphics           Japanese        0,618 kbps
FILES:
Name            Time In         Length          Size            Total Bitrate
----            -------         ------          ----            -------------
00029.M2TS      0:00:00.000     2:15:17.442     38 010 961 920  37 461
CHAPTERS:
Number          Time In         Length          Avg Video Rate  Max 1-Sec Rate  Max 1-Sec Time  Max 5-Sec Rate  Max 5-Sec Time  Max 10Sec Rate  Max 10Sec Time  Avg Frame Size  Max Frame Size  Max Frame Time
------          -------         ------          --------------  --------------  --------------  --------------  --------------  --------------  --------------  --------------  --------------  --------------
1               0:00:00.000     0:04:01.824     25 829 kbps     41 996 kbps     00:02:29.190    34 742 kbps     00:02:35.154    34 025 kbps     00:02:29.023    134 638 bytes   564 433 bytes   00:00:54.054
2               0:04:01.824     0:03:00.138     28 953 kbps     46 038 kbps     00:05:56.898    36 093 kbps     00:05:54.187    33 484 kbps     00:04:56.629    150 946 bytes   625 164 bytes   00:06:17.251
3               0:07:01.963     0:04:31.896     25 369 kbps     38 235 kbps     00:11:32.858    33 637 kbps     00:10:11.694    31 742 kbps     00:10:10.735    132 262 bytes   565 824 bytes   00:10:24.623
4               0:11:33.859     0:05:12.812     25 485 kbps     45 400 kbps     00:15:06.363    34 010 kbps     00:15:06.363    30 418 kbps     00:15:01.984    132 869 bytes   554 975 bytes   00:11:37.196
5               0:16:46.672     0:03:01.639     27 131 kbps     36 612 kbps     00:17:59.745    31 225 kbps     00:17:56.575    30 169 kbps     00:17:59.077    141 447 bytes   494 089 bytes   00:18:57.678
6               0:19:48.312     0:02:56.551     28 393 kbps     37 832 kbps     00:20:32.356    33 542 kbps     00:20:32.356    31 704 kbps     00:20:32.397    148 031 bytes   504 395 bytes   00:21:30.789
7               0:22:44.863     0:02:28.064     28 493 kbps     41 600 kbps     00:23:13.183    33 685 kbps     00:24:49.362    31 344 kbps     00:24:48.028    148 548 bytes   527 274 bytes   00:23:23.318
8               0:25:12.928     0:03:40.470     25 706 kbps     47 339 kbps     00:28:26.496    33 962 kbps     00:28:26.287    31 113 kbps     00:25:35.992    134 018 bytes   759 965 bytes   00:28:49.310
9               0:28:53.398     0:03:10.273     25 341 kbps     51 039 kbps     00:28:55.567    34 170 kbps     00:28:54.274    28 506 kbps     00:28:54.858    132 118 bytes   698 572 bytes   00:28:59.112
10              0:32:03.671     0:02:44.747     27 616 kbps     36 796 kbps     00:32:07.592    31 197 kbps     00:33:00.561    30 117 kbps     00:32:55.556    143 979 bytes   503 824 bytes   00:33:25.920
11              0:34:48.419     0:04:12.168     28 062 kbps     38 484 kbps     00:36:04.996    33 864 kbps     00:36:05.037    32 721 kbps     00:36:00.658    146 302 bytes   523 276 bytes   00:36:09.208
12              0:39:00.588     0:04:20.593     28 071 kbps     39 867 kbps     00:39:50.429    34 695 kbps     00:40:16.413    32 853 kbps     00:40:11.534    146 348 bytes   542 671 bytes   00:40:18.833
13              0:43:21.181     0:04:30.144     28 004 kbps     39 412 kbps     00:46:54.603    32 310 kbps     00:46:54.102    31 433 kbps     00:46:53.435    146 001 bytes   507 396 bytes   00:46:30.871
14              0:47:51.326     0:03:18.323     25 589 kbps     41 360 kbps     00:51:01.767    30 833 kbps     00:50:42.539    28 487 kbps     00:49:25.379    133 409 bytes   481 429 bytes   00:47:54.663
15              0:51:09.649     0:08:18.623     28 437 kbps     37 888 kbps     00:52:51.626    33 027 kbps     00:59:09.379    32 300 kbps     00:59:05.792    148 260 bytes   554 128 bytes   00:54:43.363
16              0:59:28.273     0:03:37.759     26 805 kbps     43 750 kbps     01:00:05.935    33 665 kbps     01:01:35.650    31 760 kbps     01:00:05.268    139 747 bytes   695 214 bytes   01:00:25.788
17              1:03:06.032     0:02:49.627     24 931 kbps     33 961 kbps     01:04:42.169    30 314 kbps     01:04:41.502    29 078 kbps     01:04:42.003    129 981 bytes   482 003 bytes   01:05:03.691
18              1:05:55.660     0:02:38.032     23 054 kbps     30 669 kbps     01:06:03.834    25 605 kbps     01:05:59.747    25 057 kbps     01:05:58.079    120 193 bytes   408 439 bytes   01:08:31.232
19              1:08:33.692     0:05:57.899     24 796 kbps     41 627 kbps     01:09:30.207    31 700 kbps     01:08:51.168    29 668 kbps     01:08:46.330    129 277 bytes   549 423 bytes   01:13:33.075
20              1:14:31.592     0:01:14.657     26 763 kbps     44 164 kbps     01:15:17.596    33 104 kbps     01:15:17.596    31 878 kbps     01:15:17.596    139 532 bytes   555 312 bytes   01:15:17.679
21              1:15:46.250     0:04:26.057     27 390 kbps     42 604 kbps     01:16:22.869    33 654 kbps     01:19:46.740    33 226 kbps     01:19:41.777    142 801 bytes   495 707 bytes   01:19:36.188
22              1:20:12.307     0:04:22.136     25 780 kbps     37 862 kbps     01:22:02.208    31 673 kbps     01:22:02.208    29 704 kbps     01:24:15.925    134 407 bytes   489 815 bytes   01:22:02.250
23              1:24:34.444     0:07:03.089     26 313 kbps     34 052 kbps     01:29:58.393    31 521 kbps     01:27:41.464    29 367 kbps     01:27:41.506    137 186 bytes   510 731 bytes   01:25:02.013
24              1:31:37.533     0:08:13.743     25 820 kbps     48 205 kbps     01:35:15.584    32 951 kbps     01:35:15.543    30 340 kbps     01:35:06.992    134 616 bytes   633 771 bytes   01:36:38.626
25              1:39:51.276     0:05:27.160     22 275 kbps     30 510 kbps     01:41:18.906    25 427 kbps     01:41:18.781    25 126 kbps     01:41:18.697    116 130 bytes   422 926 bytes   01:40:16.260
26              1:45:18.437     0:05:58.900     24 986 kbps     40 783 kbps     01:47:20.851    32 786 kbps     01:45:42.919    31 855 kbps     01:49:11.962    130 266 bytes   491 446 bytes   01:45:28.030
27              1:51:17.337     0:06:16.000     24 100 kbps     37 703 kbps     01:51:27.055    31 185 kbps     01:53:02.942    30 319 kbps     01:53:01.274    125 646 bytes   515 226 bytes   01:52:33.163
28              1:57:33.337     0:03:34.213     24 956 kbps     37 470 kbps     01:59:27.285    33 170 kbps     01:59:18.025    32 865 kbps     01:59:18.192    130 110 bytes   442 838 bytes   02:00:14.665
29              2:01:07.551     0:01:49.400     25 200 kbps     35 348 kbps     02:02:14.618    30 696 kbps     02:02:36.432    28 193 kbps     02:02:31.635    131 382 bytes   392 672 bytes   02:02:40.978
30              2:02:56.952     0:04:07.747     24 262 kbps     37 699 kbps     02:04:30.671    28 999 kbps     02:05:51.585    27 796 kbps     02:05:51.502    126 493 bytes   643 425 bytes   02:06:00.761
31              2:07:04.700     0:02:45.456     25 437 kbps     35 602 kbps     02:07:32.853    31 016 kbps     02:07:28.849    29 722 kbps     02:07:23.844    132 619 bytes   574 947 bytes   02:07:58.671
32              2:09:50.157     0:05:27.285     23 484 kbps     39 951 kbps     02:15:11.228    31 097 kbps     02:10:45.796    30 644 kbps     02:10:40.833    122 450 bytes   536 138 bytes   02:15:11.478
STREAM DIAGNOSTICS:
File            PID             Type            Codec           Language                Seconds                 Bitrate                 Bytes           Packets
----            ---             ----            -----           --------                --------------          --------------          -------------   -----
00029.M2TS      4113 (0x1011)   0x1B            AVC                                     8117,318                25 941                  26 321 890 977  143 168 477
00029.M2TS      4352 (0x1100)   0x86            DTS-HD MA       eng (English)           8117,318                4 284                   4 347 155 600   24 889 730
00029.M2TS      4353 (0x1101)   0x81            AC3             fra (French)            8117,318                640                     649 530 880     3 805 845
00029.M2TS      4354 (0x1102)   0x81            AC3             deu (German)            8117,318                640                     649 530 880     3 805 845
00029.M2TS      4355 (0x1103)   0x81            AC3             ita (Italian)           8117,318                640                     649 530 880     3 805 845
00029.M2TS      4356 (0x1104)   0x81            AC3             spa (Spanish)           8117,318                192                     194 859 264     1 268 615
00029.M2TS      4357 (0x1105)   0x81            AC3             por (Portuguese)        8117,318                192                     194 859 264     1 268 615
00029.M2TS      4358 (0x1106)   0x81            AC3             ces (Czech)             8117,318                192                     194 859 264     1 268 615
00029.M2TS      4359 (0x1107)   0x81            AC3             hun (Hungarian)         8117,318                448                     454 671 616     2 537 230
00029.M2TS      4360 (0x1108)   0x81            AC3             pol (Polish)            8117,318                448                     454 671 616     2 537 230
00029.M2TS      4361 (0x1109)   0x81            AC3             rus (Russian)           8117,318                640                     649 530 880     3 805 845
00029.M2TS      4362 (0x110A)   0x81            AC3             jpn (Japanese)          8117,318                640                     649 530 880     3 805 845
00029.M2TS      4608 (0x1200)   0x90            PGS             jpn (Japanese)          8117,318                19                      19 418 600      116 010
00029.M2TS      4609 (0x1201)   0x90            PGS             eng (English)           8117,318                30                      30 350 293      175 571
00029.M2TS      4610 (0x1202)   0x90            PGS             fra (French)            8117,318                22                      22 806 981      132 934
00029.M2TS      4611 (0x1203)   0x90            PGS             deu (German)            8117,318                27                      27 248 710      158 459
00029.M2TS      4612 (0x1204)   0x90            PGS             ita (Italian)           8117,318                26                      26 574 735      154 779
00029.M2TS      4613 (0x1205)   0x90            PGS             kor (Korean)            8117,318                20                      20 254 616      119 839
00029.M2TS      4614 (0x1206)   0x90            PGS             spa (Spanish)           8117,318                24                      24 761 878      143 790
00029.M2TS      4615 (0x1207)   0x90            PGS             por (Portuguese)        8117,318                24                      24 823 119      144 590
00029.M2TS      4616 (0x1208)   0x90            PGS             ces (Czech)             8117,318                22                      22 120 614      129 325
00029.M2TS      4617 (0x1209)   0x90            PGS             hun (Hungarian)         8117,318                21                      21 756 195      127 534
00029.M2TS      4618 (0x120A)   0x90            PGS             pol (Polish)            8117,318                17                      17 685 646      104 593
00029.M2TS      4619 (0x120B)   0x90            PGS             rus (Russian)           8117,318                23                      23 296 274      135 631
00029.M2TS      4620 (0x120C)   0x90            PGS             jpn (Japanese)          8117,318                1                       626 713         4 573
QUICK SUMMARY:
Disc Title: Conspiracy.Theory.1997
Disc Size: 38 440 975 993 bytes
Protection: AACS
BD-Java: No
Playlist: 00101.MPLS
Size: 38 010 961 920 bytes
Length: 2:15:17.442
Total Bitrate: 37,46 Mbps
Video: MPEG-4 AVC Video / 25941 kbps / 1080p / 23,976 fps / 16:9 / High Profile 4.1
Audio: English / DTS-HD Master Audio / 5.1 / 48 kHz / 4284 kbps / 24-bit (DTS Core: 5.1 / 48 kHz / 1509 kbps / 24-bit)
* Audio: French / Dolby Digital Audio / 5.1 / 48 kHz / 640 kbps / DN -4dB
* Audio: German / Dolby Digital Audio / 5.1 / 48 kHz / 640 kbps / DN -4dB
* Audio: Italian / Dolby Digital Audio / 5.1 / 48 kHz / 640 kbps / DN -4dB
* Audio: Spanish / Dolby Digital Audio / 2.0 / 48 kHz / 192 kbps / DN -4dB / Dolby Surround
* Audio: Portuguese / Dolby Digital Audio / 2.0 / 48 kHz / 192 kbps / DN -4dB / Dolby Surround
* Audio: Czech / Dolby Digital Audio / 2.0 / 48 kHz / 192 kbps / DN -4dB / Dolby Surround
* Audio: Hungarian / Dolby Digital Audio / 5.1 / 48 kHz / 448 kbps / DN -4dB
* Audio: Polish / Dolby Digital Audio / 5.1 / 48 kHz / 448 kbps / DN -4dB
* Audio: Russian / Dolby Digital Audio / 5.1 / 48 kHz / 640 kbps / DN -4dB
Audio: Japanese / Dolby Digital Audio / 5.1 / 48 kHz / 640 kbps / DN -4dB
Subtitle: Japanese / 19,138 kbps
Subtitle: English / 29,911 kbps
* Subtitle: French / 22,477 kbps
* Subtitle: German / 26,854 kbps
* Subtitle: Italian / 26,190 kbps
* Subtitle: Korean / 19,962 kbps
* Subtitle: Spanish / 24,404 kbps
* Subtitle: Portuguese / 24,464 kbps
* Subtitle: Czech / 21,801 kbps
* Subtitle: Hungarian / 21,441 kbps
* Subtitle: Polish / 17,430 kbps
* Subtitle: Russian / 22,959 kbps
Subtitle: Japanese / 0,618 kbps
********************
PLAYLIST: 00055.MPLS
********************
Total   Video
Title                                                           Codec   Length  Movie Size      Disc Size       Bitrate Bitrate Main Audio Track                          Secondary Audio Track
-----                                                           ------  ------- --------------  --------------  ------- ------- ------------------                        ---------------------
00055.MPLS                                                      AVC     0:05:40 178 225 152     38 440 975 993  4,19    3,95
DISC INFO:
Disc Title:     Conspiracy.Theory.1997
Disc Size:      38 440 975 993 bytes
Protection:     AACS
BD-Java:        No
BDInfo:         0.5.8
PLAYLIST REPORT:
Name:                   00055.MPLS
Length:                 0:05:40.298 (h:m:s.ms)
Size:                   178 225 152 bytes
Total Bitrate:          4,19 Mbps
VIDEO:
Codec                   Bitrate             Description
-----                   -------             -----------
MPEG-4 AVC Video        3946 kbps           1080p / 23,976 fps / 16:9 / Main Profile 4.0
FILES:
Name            Time In         Length          Size            Total Bitrate
----            -------         ------          ----            -------------
00015.M2TS      0:00:00.000     0:05:40.298     178 225 152     4 190
CHAPTERS:
Number          Time In         Length          Avg Video Rate  Max 1-Sec Rate  Max 1-Sec Time  Max 5-Sec Rate  Max 5-Sec Time  Max 10Sec Rate  Max 10Sec Time  Avg Frame Size  Max Frame Size  Max Frame Time
------          -------         ------          --------------  --------------  --------------  --------------  --------------  --------------  --------------  --------------  --------------  --------------
1               0:00:00.000     0:00:10.010     3 925 kbps      5 996 kbps      00:00:00.625    4 221 kbps      00:00:03.294    3 630 kbps      00:00:00.000    20 376 bytes    368 855 bytes   00:00:00.792
2               0:00:10.010     0:00:10.010     3 666 kbps      6 343 kbps      00:00:19.019    4 210 kbps      00:00:13.304    3 666 kbps      00:00:10.010    19 114 bytes    416 588 bytes   00:00:20.020
3               0:00:20.020     0:00:10.009     4 229 kbps      7 368 kbps      00:00:29.028    4 864 kbps      00:00:23.314    4 229 kbps      00:00:20.019    22 050 bytes    486 613 bytes   00:00:30.029
4               0:00:30.029     0:00:10.010     4 655 kbps      7 835 kbps      00:00:30.655    5 500 kbps      00:00:33.324    4 655 kbps      00:00:30.029    24 268 bytes    486 612 bytes   00:00:34.993
5               0:00:40.039     0:00:10.010     4 089 kbps      7 341 kbps      00:00:49.049    4 675 kbps      00:00:43.334    4 089 kbps      00:00:40.040    21 320 bytes    500 314 bytes   00:00:50.050
6               0:00:50.050     0:00:10.010     4 994 kbps      8 449 kbps      00:00:50.717    5 930 kbps      00:00:53.344    4 994 kbps      00:00:50.050    26 038 bytes    522 423 bytes   00:00:51.676
7               0:01:00.060     0:00:10.009     3 996 kbps      6 652 kbps      00:01:00.685    4 677 kbps      00:01:03.354    3 996 kbps      00:01:00.059    20 833 bytes    410 733 bytes   00:01:00.852
8               0:01:10.069     0:00:10.010     3 723 kbps      6 184 kbps      00:01:15.742    4 355 kbps      00:01:13.364    3 723 kbps      00:01:10.069    19 408 bytes    379 795 bytes   00:01:13.406
9               0:01:20.079     0:00:10.010     3 449 kbps      5 974 kbps      00:01:29.089    3 962 kbps      00:01:23.374    3 449 kbps      00:01:20.080    17 983 bytes    393 036 bytes   00:01:30.090
10              0:01:30.090     0:00:10.010     3 986 kbps      6 763 kbps      00:01:30.715    4 761 kbps      00:01:33.384    3 986 kbps      00:01:30.090    20 780 bytes    415 026 bytes   00:01:30.882
11              0:01:40.100     0:00:10.009     2 783 kbps      5 317 kbps      00:01:49.108    3 128 kbps      00:01:43.394    2 783 kbps      00:01:40.099    14 508 bytes    385 592 bytes   00:01:50.109
12              0:01:50.109     0:00:10.010     3 780 kbps      6 249 kbps      00:01:50.735    4 394 kbps      00:01:53.404    3 780 kbps      00:01:50.109    19 710 bytes    388 693 bytes   00:02:00.119
13              0:02:00.119     0:00:10.010     3 933 kbps      6 627 kbps      00:02:00.745    4 660 kbps      00:02:03.414    3 933 kbps      00:02:00.120    20 505 bytes    408 598 bytes   00:02:04.249
14              0:02:10.130     0:00:10.010     3 139 kbps      5 268 kbps      00:02:19.139    3 624 kbps      00:02:13.424    3 139 kbps      00:02:10.130    16 367 bytes    334 694 bytes   00:02:20.140
15              0:02:20.140     0:00:10.009     3 401 kbps      6 362 kbps      00:02:29.148    3 842 kbps      00:02:23.434    3 401 kbps      00:02:20.139    17 730 bytes    451 799 bytes   00:02:30.149
16              0:02:30.149     0:00:10.010     4 688 kbps      7 825 kbps      00:02:35.822    5 498 kbps      00:02:33.444    4 688 kbps      00:02:30.149    24 441 bytes    484 423 bytes   00:02:36.823
17              0:02:40.159     0:00:10.010     4 480 kbps      7 501 kbps      00:02:40.785    5 282 kbps      00:02:43.454    4 480 kbps      00:02:40.160    23 359 bytes    460 718 bytes   00:02:40.952
18              0:02:50.170     0:00:10.010     3 782 kbps      6 759 kbps      00:02:59.179    4 318 kbps      00:02:53.464    3 782 kbps      00:02:50.170    19 715 bytes    459 181 bytes   00:03:00.180
19              0:03:00.180     0:00:10.009     4 426 kbps      7 469 kbps      00:03:00.805    5 258 kbps      00:03:03.474    4 426 kbps      00:03:00.179    23 077 bytes    459 472 bytes   00:03:01.806
20              0:03:10.189     0:00:10.010     3 465 kbps      6 490 kbps      00:03:19.198    3 902 kbps      00:03:13.484    3 465 kbps      00:03:10.189    18 066 bytes    462 585 bytes   00:03:20.199
21              0:03:20.199     0:00:10.010     4 591 kbps      7 700 kbps      00:03:20.867    5 415 kbps      00:03:23.494    4 591 kbps      00:03:20.200    23 935 bytes    474 375 bytes   00:03:22.660
22              0:03:30.210     0:00:10.010     3 991 kbps      6 632 kbps      00:03:30.835    4 659 kbps      00:03:33.504    3 991 kbps      00:03:30.210    20 805 bytes    410 848 bytes   00:03:36.883
23              0:03:40.220     0:00:10.009     3 903 kbps      6 643 kbps      00:03:49.228    4 508 kbps      00:03:43.514    3 903 kbps      00:03:40.219    20 349 bytes    427 418 bytes   00:03:50.229
24              0:03:50.229     0:00:10.010     4 140 kbps      6 946 kbps      00:03:50.855    4 888 kbps      00:03:53.524    4 140 kbps      00:03:50.229    21 584 bytes    427 660 bytes   00:03:51.022
25              0:04:00.239     0:00:10.010     3 555 kbps      6 340 kbps      00:04:09.249    4 063 kbps      00:04:03.534    3 555 kbps      00:04:00.240    18 534 bytes    429 016 bytes   00:04:10.250
26              0:04:10.250     0:00:10.010     4 373 kbps      7 572 kbps      00:04:19.259    5 029 kbps      00:04:13.544    4 373 kbps      00:04:10.250    22 797 bytes    497 577 bytes   00:04:20.260
27              0:04:20.260     0:00:10.010     5 092 kbps      8 475 kbps      00:04:20.885    5 963 kbps      00:04:23.554    5 092 kbps      00:04:20.260    26 549 bytes    522 083 bytes   00:04:21.052
28              0:04:30.270     0:00:10.009     4 626 kbps      7 737 kbps      00:04:30.895    5 448 kbps      00:04:33.564    4 626 kbps      00:04:30.269    24 120 bytes    475 701 bytes   00:04:33.606
29              0:04:40.279     0:00:10.010     3 822 kbps      6 491 kbps      00:04:40.905    4 569 kbps      00:04:43.574    3 822 kbps      00:04:40.279    19 927 bytes    398 662 bytes   00:04:44.409
30              0:04:50.289     0:00:10.010     2 641 kbps      4 692 kbps      00:04:59.299    3 009 kbps      00:04:53.584    2 641 kbps      00:04:50.290    13 768 bytes    318 002 bytes   00:05:00.300
31              0:05:00.300     0:00:10.010     3 158 kbps      5 307 kbps      00:05:09.309    3 651 kbps      00:05:03.594    3 158 kbps      00:05:00.300    16 464 bytes    336 941 bytes   00:05:10.310
32              0:05:10.310     0:00:10.009     3 380 kbps      6 012 kbps      00:05:19.318    3 862 kbps      00:05:13.604    3 380 kbps      00:05:10.309    17 620 bytes    406 736 bytes   00:05:20.319
33              0:05:20.319     0:00:10.010     4 210 kbps      7 080 kbps      00:05:29.328    4 872 kbps      00:05:23.614    4 210 kbps      00:05:20.319    21 950 bytes    449 990 bytes   00:05:30.329
34              0:05:30.329     0:00:09.968     4 093 kbps      7 321 kbps      00:05:30.997    5 155 kbps      00:05:33.624    0 kbps          00:00:00.000    21 427 bytes    450 341 bytes   00:05:33.666
STREAM DIAGNOSTICS:
File            PID             Type            Codec           Language                Seconds                 Bitrate                 Bytes           Packets
----            ---             ----            -----           --------                --------------          --------------          -------------   -----
00015.M2TS      4113 (0x1011)   0x1B            AVC                                     340,173                 3 947                   167 852 480     916 843
QUICK SUMMARY:
Disc Title: Conspiracy.Theory.1997
Disc Size: 38 440 975 993 bytes
Protection: AACS
BD-Java: No
Playlist: 00055.MPLS
Size: 178 225 152 bytes
Length: 0:05:40.298
Total Bitrate: 4,19 Mbps
Video: MPEG-4 AVC Video / 3946 kbps / 1080p / 23,976 fps / 16:9 / Main Profile 4.0
********************
PLAYLIST: 00053.MPLS
********************
Total   Video
Title                                                           Codec   Length  Movie Size      Disc Size       Bitrate Bitrate Main Audio Track                          Secondary Audio Track
-----                                                           ------  ------- --------------  --------------  ------- ------- ------------------                        ---------------------
00053.MPLS                                                      AVC     0:00:50 53 932 032      38 440 975 993  8,63    8,20
DISC INFO:
Disc Title:     Conspiracy.Theory.1997
Disc Size:      38 440 975 993 bytes
Protection:     AACS
BD-Java:        No
BDInfo:         0.5.8
PLAYLIST REPORT:
Name:                   00053.MPLS
Length:                 0:00:50.008 (h:m:s.ms)
Size:                   53 932 032 bytes
Total Bitrate:          8,63 Mbps
VIDEO:
Codec                   Bitrate             Description
-----                   -------             -----------
MPEG-4 AVC Video        8197 kbps           1080p / 23,976 fps / 16:9 / High Profile 4.0
FILES:
Name            Time In         Length          Size            Total Bitrate
----            -------         ------          ----            -------------
00013.M2TS      0:00:00.000     0:00:50.008     53 932 032      8 628
CHAPTERS:
Number          Time In         Length          Avg Video Rate  Max 1-Sec Rate  Max 1-Sec Time  Max 5-Sec Rate  Max 5-Sec Time  Max 10Sec Rate  Max 10Sec Time  Avg Frame Size  Max Frame Size  Max Frame Time
------          -------         ------          --------------  --------------  --------------  --------------  --------------  --------------  --------------  --------------  --------------  --------------
1               0:00:00.000     0:00:10.010     8 102 kbps      10 556 kbps     00:00:09.009    8 333 kbps      00:00:03.294    7 810 kbps      00:00:00.000    42 065 bytes    397 660 bytes   00:00:10.010
2               0:00:10.010     0:00:10.010     8 643 kbps      11 650 kbps     00:00:17.434    9 266 kbps      00:00:13.304    8 643 kbps      00:00:10.010    45 059 bytes    402 889 bytes   00:00:15.807
3               0:00:20.020     0:00:10.009     7 718 kbps      10 476 kbps     00:00:21.604    8 341 kbps      00:00:23.314    7 718 kbps      00:00:20.019    40 236 bytes    371 724 bytes   00:00:26.693
4               0:00:30.029     0:00:10.010     6 644 kbps      9 370 kbps      00:00:39.038    6 984 kbps      00:00:33.324    6 644 kbps      00:00:30.029    34 637 bytes    386 986 bytes   00:00:40.039
5               0:00:40.039     0:00:09.968     9 885 kbps      13 558 kbps     00:00:41.624    10 936 kbps     00:00:43.334    0 kbps          00:00:00.000    51 754 bytes    401 367 bytes   00:00:40.832
STREAM DIAGNOSTICS:
File            PID             Type            Codec           Language                Seconds                 Bitrate                 Bytes           Packets
----            ---             ----            -----           --------                --------------          --------------          -------------   -----
00013.M2TS      4113 (0x1011)   0x1B            AVC                                     49,883                  8 217                   51 238 618      279 200
QUICK SUMMARY:
Disc Title: Conspiracy.Theory.1997
Disc Size: 38 440 975 993 bytes
Protection: AACS
BD-Java: No
Playlist: 00053.MPLS
Size: 53 932 032 bytes
Length: 0:00:50.008
Total Bitrate: 8,63 Mbps
Video: MPEG-4 AVC Video / 8197 kbps / 1080p / 23,976 fps / 16:9 / High Profile 4.0
********************
PLAYLIST: 00054.MPLS
********************
Total   Video
Title                                                           Codec   Length  Movie Size      Disc Size       Bitrate Bitrate Main Audio Track                          Secondary Audio Track
-----                                                           ------  ------- --------------  --------------  ------- ------- ------------------                        ---------------------
00054.MPLS                                                      AVC     0:00:29 35 948 544      38 440 975 993  9,59    9,12
DISC INFO:
Disc Title:     Conspiracy.Theory.1997
Disc Size:      38 440 975 993 bytes
Protection:     AACS
BD-Java:        No
BDInfo:         0.5.8
PLAYLIST REPORT:
Name:                   00054.MPLS
Length:                 0:00:29.988 (h:m:s.ms)
Size:                   35 948 544 bytes
Total Bitrate:          9,59 Mbps
VIDEO:
Codec                   Bitrate             Description
-----                   -------             -----------
MPEG-4 AVC Video        9120 kbps           1080p / 23,976 fps / 16:9 / High Profile 4.0
FILES:
Name            Time In         Length          Size            Total Bitrate
----            -------         ------          ----            -------------
00014.M2TS      0:00:00.000     0:00:29.988     35 948 544      9 590
CHAPTERS:
Number          Time In         Length          Avg Video Rate  Max 1-Sec Rate  Max 1-Sec Time  Max 5-Sec Rate  Max 5-Sec Time  Max 10Sec Rate  Max 10Sec Time  Avg Frame Size  Max Frame Size  Max Frame Time
------          -------         ------          --------------  --------------  --------------  --------------  --------------  --------------  --------------  --------------  --------------  --------------
1               0:00:00.000     0:00:10.010     8 064 kbps      10 436 kbps     00:00:01.584    8 333 kbps      00:00:03.294    7 772 kbps      00:00:00.000    41 868 bytes    365 591 bytes   00:00:07.465
2               0:00:10.010     0:00:10.010     9 049 kbps      12 965 kbps     00:00:19.019    9 897 kbps      00:00:13.304    9 049 kbps      00:00:10.010    47 176 bytes    409 113 bytes   00:00:20.020
3               0:00:20.020     0:00:09.968     10 251 kbps     13 880 kbps     00:00:21.604    11 339 kbps     00:00:23.314    0 kbps          00:00:00.000    53 667 bytes    433 042 bytes   00:00:20.812
STREAM DIAGNOSTICS:
File            PID             Type            Codec           Language                Seconds                 Bitrate                 Bytes           Packets
----            ---             ----            -----           --------                --------------          --------------          -------------   -----
00014.M2TS      4113 (0x1011)   0x1B            AVC                                     29,863                  9 158                   34 185 297      186 205
QUICK SUMMARY:
Disc Title: Conspiracy.Theory.1997
Disc Size: 38 440 975 993 bytes
Protection: AACS
BD-Java: No
Playlist: 00054.MPLS
Size: 35 948 544 bytes
Length: 0:00:29.988
Total Bitrate: 9,59 Mbps
Video: MPEG-4 AVC Video / 9120 kbps / 1080p / 23,976 fps / 16:9 / High Profile 4.0
********************
PLAYLIST: 00052.MPLS
********************
Total   Video
Title                                                           Codec   Length  Movie Size      Disc Size       Bitrate Bitrate Main Audio Track                          Secondary Audio Track
-----                                                           ------  ------- --------------  --------------  ------- ------- ------------------                        ---------------------
00052.MPLS                                                      AVC     0:00:23 29 712 384      38 440 975 993  10,23   9,74
DISC INFO:
Disc Title:     Conspiracy.Theory.1997
Disc Size:      38 440 975 993 bytes
Protection:     AACS
BD-Java:        No
BDInfo:         0.5.8
PLAYLIST REPORT:
Name:                   00052.MPLS
Length:                 0:00:23.231 (h:m:s.ms)
Size:                   29 712 384 bytes
Total Bitrate:          10,23 Mbps
VIDEO:
Codec                   Bitrate             Description
-----                   -------             -----------
MPEG-4 AVC Video        9736 kbps           1080p / 23,976 fps / 16:9 / High Profile 4.0
FILES:
Name            Time In         Length          Size            Total Bitrate
----            -------         ------          ----            -------------
00012.M2TS      0:00:00.000     0:00:23.231     29 712 384      10 232
CHAPTERS:
Number          Time In         Length          Avg Video Rate  Max 1-Sec Rate  Max 1-Sec Time  Max 5-Sec Rate  Max 5-Sec Time  Max 10Sec Rate  Max 10Sec Time  Avg Frame Size  Max Frame Size  Max Frame Time
------          -------         ------          --------------  --------------  --------------  --------------  --------------  --------------  --------------  --------------  --------------  --------------
1               0:00:00.000     0:00:23.231     9 736 kbps      28 022 kbps     00:00:11.594    13 408 kbps     00:00:08.091    11 401 kbps     00:00:12.137    50 851 bytes    482 078 bytes   00:00:17.767
STREAM DIAGNOSTICS:
File            PID             Type            Codec           Language                Seconds                 Bitrate                 Bytes           Packets
----            ---             ----            -----           --------                --------------          --------------          -------------   -----
00012.M2TS      4113 (0x1011)   0x1B            AVC                                     23,148                  9 771                   28 273 304      153 973
QUICK SUMMARY:
Disc Title: Conspiracy.Theory.1997
Disc Size: 38 440 975 993 bytes
Protection: AACS
BD-Java: No
Playlist: 00052.MPLS
Size: 29 712 384 bytes
Length: 0:00:23.231
Total Bitrate: 10,23 Mbps
Video: MPEG-4 AVC Video / 9736 kbps / 1080p / 23,976 fps / 16:9 / High Profile 4.0
[/code]

Скриншоты меню


Скриншоты


Резервные скриншоты


Скачать

Скачать торрент!

Как скачивать? · Что такое торрент? · Рейтинг и ограничения

Сайт не распространяет и не хранит электронные версии произведений, а лишь предоставляет доступ к создаваемому пользователями каталогу ссылок на торрент-файлы, которые содержат только списки хеш-сумм

[Профиль] [ЛС]
Показать сообщения:    
Ответить на тему

Текущее время: Сегодня 18:17

Часовой пояс: GMT + 4



Вы не можете начинать темы
Вы не можете отвечать на сообщения
Вы не можете редактировать свои сообщения
Вы не можете удалять свои сообщения
Вы не можете голосовать в опросах
Вы не можете прикреплять файлы к сообщениям
Вы не можете скачивать файлы