Мистер Пип / Mr. Pip (Эндрю Адамсон / Andrew Ralph Adamson) [2012, Папуа - Новая Гвинея, Австралия, Новая Зеландия, Драма, BDRip 720p] Sub Rus, Eng + Original Eng

Ответить на тему
 
Автор Сообщение

user ®

Стаж: 7 лет 7 месяцев

Сообщений: 20008

Пост Пост: #1 от 09-Апр-2014 00:40

[Цитировать]

Мистер Пип / Mr. Pip
Страна: Папуа - Новая Гвинея, Австралия, Новая Зеландия
Жанр: Драма
Год выпуска: 2012
Продолжительность: 01:55:27
Перевод: Субтитры
Cубтитры: русские, английские
Оригинальная аудиодорожка: английский
Режиссер: Эндрю Адамсон / Andrew Ralph Adamson
В ролях: Хью Лори, Экзанья Матси, Хилсвиль Джоэль, Эка Дарвиль, Флоренс Корокоро, Кэрри Фокс.
Описание: Действие фильма происходит в 1990-х годах во время гражданской войны на острове Бугенвиль в Папуа-Новой Гвинее. Томас Уоттс - единственный белый человек, оставшийся на блокированном правительственными войсками острове, читает детям в школе роман Чарльза Диккенса "Большие надежды". 14-летняя Матильда погружается в мир романа, находит утешение, вдохновение и надежду, в то время как ее собственный мир рушится на глазах. Правительственная армия, посланная уничтожить местных повстанцев, все ближе к деревне. Матильда пишет на песке слово «Пип». Это простое действие приводит к страшным последствиям.
Доп. информация: Перевод субтитров: Fryoylajn, gallina, n_a_u, kyrkela, nedolga, la_sintez.
Качество видео: BDRip 720p
Формат видео: MKV
Видео: MPEG4 Video (H264), 1280x544, 23.976 кадров в секунду, 2.35:1, 5 548 кБит/с
Аудио: DTS, 48 кГц, 6 каналов, 1 510 кБит/с
Формат субтитров: вшитые softsub (SRT)
Сэмпл:

MediaInfo

General
Unique ID : 251152489577731558509397288554916863474 (0xBCF235C46DC5E3B58AA9273AEAB9DDF2)
Complete name : D:\Пип на *трекер\2012 - mrPip.mkv
Format : Matroska
Format version : Version 4 / Version 2
File size : 5.69 GiB
Duration : 1h 55mn
Overall bit rate : 7 058 Kbps
Encoded date : UTC 2014-04-08 16:40:31
Writing application : mkvmerge v6.8.0 ('Theme for Great Cities') 32bit built on Mar 2 2014 21:27:07
Writing library : libebml v1.3.0 + libmatroska v1.4.1
Video
ID : 1
Format : AVC
Format/Info : Advanced Video Codec
Format profile : High@L4.1
Format settings, CABAC : Yes
Format settings, ReFrames : 5 frames
Codec ID : V_MPEG4/ISO/AVC
Duration : 1h 55mn
Bit rate : 5 548 Kbps
Width : 1 280 pixels
Height : 544 pixels
Display aspect ratio : 2.35:1
Frame rate : 23.976 fps
Color space : YUV
Chroma subsampling : 4:2:0
Bit depth : 8 bits
Scan type : Progressive
Bits/(Pixel*Frame) : 0.332
Stream size : 4.36 GiB (77%)
Writing library : x264 core 142 r2409 d6b4e63
Encoding settings : cabac=1 / ref=5 / deblock=1:0:0 / analyse=0x3:0x133 / me=umh / subme=8 / psy=1 / psy_rd=1.00:0.00 / mixed_ref=1 / me_range=16 / chroma_me=1 / trellis=1 / 8x8dct=1 / cqm=0 / deadzone=21,11 / fast_pskip=0 / chroma_qp_offset=-2 / threads=12 / lookahead_threads=2 / sliced_threads=0 / nr=0 / decimate=1 / interlaced=0 / bluray_compat=0 / constrained_intra=0 / bframes=3 / b_pyramid=2 / b_adapt=1 / b_bias=0 / direct=1 / weightb=1 / open_gop=0 / weightp=2 / keyint=250 / keyint_min=23 / scenecut=40 / intra_refresh=0 / rc_lookahead=40 / rc=2pass / mbtree=1 / bitrate=5548 / ratetol=1.0 / qcomp=0.60 / qpmin=0 / qpmax=69 / qpstep=4 / cplxblur=20.0 / qblur=0.5 / ip_ratio=1.40 / aq=1:1.00
Language : English
Default : Yes
Forced : No
Audio
ID : 2
Format : DTS
Format/Info : Digital Theater Systems
Codec ID : A_DTS
Duration : 1h 55mn
Bit rate mode : Constant
Bit rate : 1 510 Kbps
Channel(s) : 6 channels
Channel positions : Front: L C R, Side: L R, LFE
Sampling rate : 48.0 KHz
Bit depth : 16 bits
Compression mode : Lossy
Stream size : 1.22 GiB (21%)
Default : Yes
Forced : No
Text #1
ID : 3
Format : UTF-8
Codec ID : S_TEXT/UTF8
Codec ID/Info : UTF-8 Plain Text
Language : Russian
Default : Yes
Forced : No
Text #2
ID : 4
Format : UTF-8
Codec ID : S_TEXT/UTF8
Codec ID/Info : UTF-8 Plain Text
Default : No
Forced : No

Скриншоты


Скачать

Скачать торрент!

Как скачивать? · Что такое торрент? · Рейтинг и ограничения

Сайт не распространяет и не хранит электронные версии произведений, а лишь предоставляет доступ к создаваемому пользователями каталогу ссылок на торрент-файлы, которые содержат только списки хеш-сумм

[Профиль] [ЛС]
Показать сообщения:    
Ответить на тему

Текущее время: Сегодня 15:35

Часовой пояс: GMT + 4



Вы не можете начинать темы
Вы не можете отвечать на сообщения
Вы не можете редактировать свои сообщения
Вы не можете удалять свои сообщения
Вы не можете голосовать в опросах
Вы не можете прикреплять файлы к сообщениям
Вы не можете скачивать файлы