Лётчик Киви / Kiwi Flyer (Тони Симпсон / Tony Simpson) [2012, Новая Зеландия, семейный, HDTV 1080i] MVO

Ответить на тему
 
Автор Сообщение

user ®

Стаж: 7 лет 7 месяцев

Сообщений: 20008

Пост Пост: #1 от 09-Апр-2014 00:40

[Цитировать]

Лётчик Киви / Kiwi Flyer
Страна: Новая Зеландия
Жанр: семейный
Год выпуска: 2012
Продолжительность: 01:23:29
Перевод: Профессиональный (многоголосый закадровый)
Cубтитры: нет
Оригинальная аудиодорожка: нет
Режиссер: Тони Симпсон / Tony Simpson
В ролях: Эдвард Холл, Tikirau Hathaway, Винс Мартин, Тэнди Райт, Даи Хенвуд, Myer van Gosliga, Doug Colling, Jane Winter, David de Thierry, Matt French
Описание: В Нельсоне, Новая Зеландия, двенадцатилетний Бен планирует выиграть гонку. Но мечта Бена разбивается, когда его отец гибнет в автомобильном несчастном случае, возвращаясь домой с недавно построенной вагонеткой, так необходимой для участия в состязании.
Сэмпл: http://multi-up.com/965640

Тип релиза: HDTV 1080i
Контейнер: MKV
Видео: MPEG4 (H264) 1920x1080 (16:9) 25fps 10.1 Mbps
Аудио: AC3 2.0 ch 48 kHz 16 bit 448 Kbps

MediaInfo

General
Unique ID : 253551111170776184324570786108526267110 (0xBEC02AF13F5F764E93349F32BEFF8AE6)
Complete name : S:\Letchik.kiwi.MVO.2012.HDTV.1080i.mkv
Format : Matroska
Format version : Version 4 / Version 2
File size : 6.26 GiB
Duration : 1h 23mn
Overall bit rate : 10.7 Mbps
Movie name : SharkN73 04.04.2014
Encoded date : UTC 2014-04-04 17:24:55
Writing application : mkvmerge v6.8.0 ('Theme for Great Cities') 64bit built on Mar 2 2014 21:34:26
Writing library : libebml v1.3.0 + libmatroska v1.4.1
Video
ID : 1
Format : AVC
Format/Info : Advanced Video Codec
Format profile : High@L4.0
Format settings, CABAC : Yes
Format settings, ReFrames : 3 frames
Codec ID : V_MPEG4/ISO/AVC
Duration : 1h 23mn
Bit rate : 10.1 Mbps
Width : 1 920 pixels
Height : 1 080 pixels
Display aspect ratio : 16:9
Frame rate mode : Constant
Frame rate : 25.000 fps
Standard : Component
Color space : YUV
Chroma subsampling : 4:2:0
Bit depth : 8 bits
Scan type : Interlaced
Scan order : Top Field First
Bits/(Pixel*Frame) : 0.194
Stream size : 5.88 GiB (94%)
Language : English
Default : Yes
Forced : No
Color primaries : BT.709
Transfer characteristics : BT.709
Matrix coefficients : BT.709
Audio
ID : 2
Format : AC-3
Format/Info : Audio Coding 3
Mode extension : CM (complete main)
Format settings, Endianness : Big
Codec ID : A_AC3
Duration : 1h 23mn
Bit rate mode : Constant
Bit rate : 448 Kbps
Channel(s) : 6 channels
Channel(s)_Original : 2 channels
Channel positions : Front: L R
Sampling rate : 48.0 KHz
Bit depth : 16 bits
Compression mode : Lossy
Delay relative to video : 1ms
Stream size : 268 MiB (4%)
Language : Russian
Default : Yes
Forced : No
Скачать

Скачать торрент!

Как скачивать? · Что такое торрент? · Рейтинг и ограничения

Сайт не распространяет и не хранит электронные версии произведений, а лишь предоставляет доступ к создаваемому пользователями каталогу ссылок на торрент-файлы, которые содержат только списки хеш-сумм

[Профиль] [ЛС]
Показать сообщения:    
Ответить на тему

Текущее время: Сегодня 02:16

Часовой пояс: GMT + 4



Вы не можете начинать темы
Вы не можете отвечать на сообщения
Вы не можете редактировать свои сообщения
Вы не можете удалять свои сообщения
Вы не можете голосовать в опросах
Вы не можете прикреплять файлы к сообщениям
Вы не можете скачивать файлы