Мастер тай-цзи / Man of Tai Chi (Киану Ривз / Keanu Reeves) [2013, Боевик, BDRip] Dub

Ответить на тему
 
Автор Сообщение

user ®

Стаж: 11 лет

Сообщений: 15151

Пост Пост: #1 от 08-Апр-2014 21:30

[Цитировать]

Мастер тай-цзи / Man of Tai Chi
«Без правил. Без пощады. Только борьба»
- Год выпуска: 2013
Выпущено: Китай, Гонконг, США / Universal Pictures
Жанр: боевик
Продолжительность: 01:45:09
Перевод: Профессиональный (полное дублирование) BD CEE
Cубтитры: нет-Режиссер:
Киану Ривз / Keanu Reeves-В ролях:
Тайгер Ху Чен (Chen Lin-Hu - Man of Tai Chi), Киану Ривз (Donaka Mark), Карен Мок (Sun Jingshi (Captain of Hongkong Police Officer)), Хай Юй (Yang - Tai Chi Master), Цин Е (Qingsha), Саймон Ям (Wong - Superintendent of Hongkong Police Officer), Ико Ювайс (Gilang Sanjaya (Special Appearance Pencak Silat Fighter)), Сильвио Шимач (Uri Romanov), Хелен Леклерк (Female Announcer), Ю Сон Чжун (Chi-Tak), Стивен Дасс (Vip audience), Джереми Меринас (MMA Fighter)-Описание:
Пекин. Амбициозный юноша Чэнь Линь-Ху по кличке «Тигр» подрабатывает скромным курьером, но после работы он превращается в молодую звезду боевых искусств, постепенно оттачивая свои навыки, следуя традициям Тайцзи Лин Кун. Обучившись размеренным и мирным движениям из Тайцзи, он приспособил их для бойцовских соревнований. Донака Марк, скрываясь от гонконгской полиции, попадает в другой столичный мегаполис, где царит неразбериха и хаос, и открывает там подпольный бойцовский клуб, в котором реальные деньги можно заработать, побеждая противников в поединках без правил, транслируемых в прямом эфире богатым клиентам. Подыскивая новую «звезду», Донака пытается приманить Тигра обещанием лёгкого заработка. Вхождение в этот мир выявляет самую тёмную сторону Чэнь Линь-Ху, но ему необходимы наличные. Его навыки помогают ему на ринге, но сможет ли он, сражаясь, сохранить в себе чистоту и добропорядочность?-Качество: BDRip [MAN_OF_TAI_CHI_HDCLUB]
Формат: AVI
Видео: 720x304 (2.37:1), 23.976 fps, XviD build 73 ~1526 kbps avg, 0.29 bit/pixel
Аудио: 48 kHz, AC3 Dolby Digital, 3/2 (L,C,R,l,r) + LFE ch, ~448.00 kbps avg
-

Скриншоты

MediaInfo

General
Complete name                            : D:\Master_Tai_Chi_2013_BDRip_by_Dalemake.avi
Format                                   : AVI
Format/Info                              : Audio Video Interleave
File size                                : 1.46 GiB
Duration                                 : 1h 45mn
Overall bit rate                         : 1 984 Kbps
Writing application                      : VirtualDubMod 1.5.10.3 | www.virtualdub-fr.org || (build 2550/release)
Writing library                          : VirtualDubMod build 2550/release
Video
ID                                       : 0
Format                                   : MPEG-4 Visual
Format profile                           : Advanced Simple@L5
Format settings, BVOP                    : 1
Format settings, QPel                    : No
Format settings, GMC                     : No warppoints
Format settings, Matrix                  : Custom
Codec ID                                 : XVID
Codec ID/Hint                            : XviD
Duration                                 : 1h 45mn
Bit rate                                 : 1 527 Kbps
Width                                    : 720 pixels
Height                                   : 304 pixels
Display aspect ratio                     : 2.35:1
Frame rate                               : 23.976 fps
Color space                              : YUV
Chroma subsampling                       : 4:2:0
Bit depth                                : 8 bits
Scan type                                : Progressive
Compression mode                         : Lossy
Bits/(Pixel*Frame)                       : 0.291
Stream size                              : 1.12 GiB (77%)
Writing library                          : XviD 73
Audio
ID                                       : 1
Format                                   : AC-3
Format/Info                              : Audio Coding 3
Mode extension                           : CM (complete main)
Format settings, Endianness              : Big
Codec ID                                 : 2000
Duration                                 : 1h 45mn
Bit rate mode                            : Constant
Bit rate                                 : 448 Kbps
Channel(s)                               : 6 channels
Channel positions                        : Front: L C R, Side: L R, LFE
Sampling rate                            : 48.0 KHz
Bit depth                                : 16 bits
Compression mode                         : Lossy
Stream size                              : 337 MiB (23%)
Alignment                                : Split accross interleaves
Interleave, duration                     : 42 ms (1.00 video frame)
Interleave, preload duration             : 500 ms
-
Скачать

Скачать торрент! Мастер тай-цзи / Man of Tai Chi (Киану Ривз / Keanu Reeves) [2013, Боевик, BDRip] Dub

Как скачивать? · Что такое торрент? · Рейтинг и ограничения

Сайт не распространяет и не хранит электронные версии произведений, а лишь предоставляет доступ к создаваемому пользователями каталогу ссылок на торрент-файлы, которые содержат только списки хеш-сумм

[Профиль] [ЛС]
Показать сообщения:    
Ответить на тему

Текущее время: Сегодня 15:55

Часовой пояс: GMT + 4



Вы не можете начинать темы
Вы не можете отвечать на сообщения
Вы не можете редактировать свои сообщения
Вы не можете удалять свои сообщения
Вы не можете голосовать в опросах
Вы не можете прикреплять файлы к сообщениям
Вы не можете скачивать файлы