В компании мужчин / In the company of men (Нил ЛаБут / Neil LaBute) [1997, Канада, США, драма, комедия, WEB-DL 720p] AVO (Карцев) + Original Eng + Sub Rus, Eng

Ответить на тему
 
Автор Сообщение

user ®

Стаж: 7 лет 7 месяцев

Сообщений: 20008

Пост Пост: #1 от 08-Апр-2014 21:30

[Цитировать]

В компании мужчин / In the company of men Страна: Канада, США
Студия: Alliance Atlantis Communications, Fair and Square Productions
Жанр: драма, комедия
Год выпуска: 1997
Продолжительность: 01:36:54
Перевод 1: Авторский (одноголосый закадровый) Петр Карцев
Cубтитры: русские, английские
Оригинальная аудиодорожка: Английский
Режиссер: Нил ЛаБут / Neil LaBute
В ролях: Аарон Экхарт, Стэйси Эдвардс, Мэтт Мэллой, Майкл Мартин, Марк Ректор, Крис Хэйес, Джейсон Дикси, Эмили Клайн, Роксанна Батлер, Тахира Эссик
Описание: Два приятеля, Чед и Говард, сотрудники некоей корпорации, отправляются в командировку в филиал фирмы. Перед отъездом они разрабатывают план: познакомиться с какой-нибудь девушкой и встречаться с ней поочередно.
Чтобы было, о чем вспомнить в старости. И действительно: вскоре Чед обнаруживает подходящий объект.

Качество видео:WEB-DL 720p
Формат видео: MKV
Видео кодек: H264
Аудио кодек: AC3
Видео: 1280x718 (1.78:1), 23,976 fps, ~4125 kbps avg, 0.187 bit/pixel
Аудио 1: 48 kHz, AC3 Dolby Digital, 2/0 (L,R) ch, ~192 kbps - Карцев
Аудио 2: 48 kHz, AC3 Dolby Digital, 2/0 (L,R) ch, ~192 kbps - Оригинал

MediaInfo

Complete name : V.kompanii.muzhchin.1997.WEBDL720p.mkv
Format : Matroska
Format version : Version 4 / Version 2
File size : 3.11 GiB
Duration : 1h 36mn
Overall bit rate : 4 600 Kbps
Encoded date : UTC 2014-04-08 07:56:27
Writing application : mkvmerge v6.5.0 ('Isn't she lovely') built on Oct 20 2013 12:50:05
Writing library : libebml v1.3.0 + libmatroska v1.4.1
Video
ID : 1
Format : AVC
Format/Info : Advanced Video Codec
Format profile : High@L3.1
Format settings, CABAC : No
Format settings, ReFrames : 2 frames
Format settings, GOP : N=1
Codec ID : V_MPEG4/ISO/AVC
Duration : 1h 36mn
Bit rate : 4 125 Kbps
Width : 1 280 pixels
Height : 718 pixels
Display aspect ratio : 16:9
Frame rate mode : Constant
Frame rate : 23.976 fps
Color space : YUV
Chroma subsampling : 4:2:0
Bit depth : 8 bits
Scan type : Progressive
Bits/(Pixel*Frame) : 0.187
Stream size : 2.79 GiB (90%)
Language : English
Default : Yes
Forced : No
Color primaries : BT.709
Transfer characteristics : BT.709
Matrix coefficients : BT.709
Audio #1
ID : 2
Format : AC-3
Format/Info : Audio Coding 3
Mode extension : CM (complete main)
Format settings, Endianness : Big
Codec ID : A_AC3
Duration : 1h 36mn
Bit rate mode : Constant
Bit rate : 192 Kbps
Channel(s) : 2 channels
Channel positions : Front: L R
Sampling rate : 48.0 KHz
Bit depth : 16 bits
Compression mode : Lossy
Stream size : 133 MiB (4%)
Language : Russian
Default : Yes
Forced : No
Audio #2
ID : 3
Format : AC-3
Format/Info : Audio Coding 3
Mode extension : CM (complete main)
Format settings, Endianness : Big
Codec ID : A_AC3
Duration : 1h 36mn
Bit rate mode : Constant
Bit rate : 192 Kbps
Channel(s) : 2 channels
Channel positions : Front: L R
Sampling rate : 48.0 KHz
Bit depth : 16 bits
Compression mode : Lossy
Stream size : 133 MiB (4%)
Language : English
Default : No
Forced : No
Text #1
ID : 4
Format : UTF-8
Codec ID : S_TEXT/UTF8
Codec ID/Info : UTF-8 Plain Text
Language : Russian
Default : No
Forced : No
Text #2
ID : 5
Format : UTF-8
Codec ID : S_TEXT/UTF8
Codec ID/Info : UTF-8 Plain Text
Language : English
Default : No
Forced : No
Menu
00:00:00.000 : en:Start
00:01:41.000 : en:Chad & Howard
00:08:42.000 : en:The Game
00:12:48.000 : en:Week One
00:15:37.000 : en:John
00:18:28.000 : en:Perfect Candidate
00:22:01.000 : en:Calling Christine
00:24:20.000 : en:Week Two
00:25:57.000 : en:Howard & Christine
00:28:31.000 : en:Conference Room
00:30:42.000 : en:Meeting Starts
00:31:35.000 : en:Copy Line
00:32:47.000 : en:Week Three
00:35:10.000 : en:Making His Move
00:36:57.000 : en:Comparing Notes
00:41:29.000 : en:Lies & Truth
00:44:26.000 : en:Week Four
00:47:21.000 : en:Lunch With Chad
00:52:43.000 : en:Up On The Roof
00:57:24.000 : en:Week Five
00:59:47.000 : en:Jewerly Store
01:00:48.000 : en:The Intern
01:05:04.000 : en:Hurting Howard
01:10:22.000 : en:Hurting Christine
01:14:06.000 : en:Week Six
01:17:41.000 : en:Game Over
01:23:28.000 : en:Weeks Later
01:32:35.000 : en:"Listen!"

Скриншоты

DVD vs WEBDL
Скачать

Скачать торрент!

Как скачивать? · Что такое торрент? · Рейтинг и ограничения

Сайт не распространяет и не хранит электронные версии произведений, а лишь предоставляет доступ к создаваемому пользователями каталогу ссылок на торрент-файлы, которые содержат только списки хеш-сумм

[Профиль] [ЛС]
Показать сообщения:    
Ответить на тему

Текущее время: Сегодня 12:31

Часовой пояс: GMT + 4



Вы не можете начинать темы
Вы не можете отвечать на сообщения
Вы не можете редактировать свои сообщения
Вы не можете удалять свои сообщения
Вы не можете голосовать в опросах
Вы не можете прикреплять файлы к сообщениям
Вы не можете скачивать файлы