Окно в Париж (Юрий Мамин, Аркадий Тигай) [1993, Комедия, кинофантазия, DVDRip-AVC]

Ответить на тему
 
Автор Сообщение

user ®

Стаж: 7 лет 7 месяцев

Сообщений: 20008

Пост Пост: #1 от 08-Апр-2014 21:30

[Цитировать]

Окно в Париж
Жанр: Комедия, кинофантазия
Год выпуска: 1993
Продолжительность: 01:52:02
Режиссёр: Юрий Мамин, Аркадий Тигай
В ролях: Сергей Дрейден, Аньес Сораль, Сергей Донцов, Виктор Михайлов, Нина Усатова, Андрей Ургант, Кира Крейлис-Петрова, Елена Драпеко, Наталья Ипатова, Виктор Гоголев, Тамара Тимофеева, Жан Рюпер, Владимир Калиш, Алексей Заливалов, Анатолий Сливников, Юрий Мамин, Олег Белов, Юрий Тарасов, Валентин Букин, Малка Рибовска
Описание: Обитатели петербургской коммуналки во время вечеринки обнаруживают в комнате таинственно пропавшей старухи заставленное шкафом окно. Окно ведёт на крышу, с которой исследователи спускаются на улицу, будучи в полной уверенности, что это улица родного Петербурга.Часть из них уезжает на такси, другие возвращаются домой через окно, которое, как выясняется на следующий день, открывается в Париж один раз в двадцать лет на несколько дней. Об этом рассказала остальным жильцам «на допросе с пристрастием» застигнутая врасплох старуха, вернувшаяся в свою питерскую комнату за пропавшим котом.
Понимая, что время пребывания в городе-мечте Париже очень ограничено, герои начинают вести бурную коммерческую деятельность, с целью заработать побольше свободно конвертируемой валюты (торговля сувенирами, игра на шарманке и простое воровство, вплоть до протаскивания через «окно» французской малолитражки).
Параллельно развивается непростая любовная история взаимоотношений главного героя фильма и милой парижанки, чья квартира имеет выход на ту же крышу, что и «окно». Желая избавиться от бурных протестов по поводу хамского вторжения в её жизнь, француженку заманивают через окно в Петербург, где столкнувшись с ужасающей российской действительностью начала 90-ых она едва не сходит с ума, попадает в «обезьянник», выбраться из которого ей помогает главный герой.
Доп. информация: [url=http://***/forum/viewtopic.php?t=2301852]исходник[/url]
Качество видео: DVDRip-AVC
Формат видео: MKV
Видео: 690x574@736х574, 25.000 fps, AVC, ~1676 Kbps
Аудио: 48 kHz, AC3 Dolby Digital, 2/0 (L,R) ch, ~192.00 kbps

MediaInfo

Общее
Уникальный идентификатор : 205515083403877665782345664519807941672 (0x9A9CC3EBB05A1977933E1DA7C8B3BC28)
Полное имя : D:\Окно в париж_1993-DVDRip-AVC.mkv
Формат : Matroska
Версия формата : Version 2
Размер файла : 1,46 Гбайт
Продолжительность : 1 ч. 52 м.
Общий поток : 1870 Кбит/сек
Дата кодирования : UTC 2014-04-05 11:29:18
Программа кодирования : mkvmerge v5.1.0 ('And so it goes') built on Nov 28 2011 23:58:28
Библиотека кодирования : libebml v1.2.3 + libmatroska v1.3.0
Видео
Идентификатор : 1
Формат : AVC
Формат/Информация : Advanced Video Codec
Профиль формата : High@L4.1
Параметр CABAC формата : Да
Параметр ReFrames формата : 14 кадров
Идентификатор кодека : V_MPEG4/ISO/AVC
Продолжительность : 1 ч. 52 м.
Битрейт : 1676 Кбит/сек
Ширина : 690 пикселей
Высота : 574 пикселя
Соотношение сторон : 1,282
Режим частоты кадров : Постоянный
Частота кадров : 25,000 кадров/сек
Цветовое пространство : YUV
Субдискретизация насыщенности : 4:2:0
Битовая глубина : 8 бит
Тип развёртки : Прогрессивная
Бит/(Пиксели*Кадры) : 0.169
Размер потока : 1,28 Гбайт (88%)
Библиотека кодирования : x264 core 142 r2409 d6b4e63
Настройки программы : cabac=1 / ref=14 / deblock=1:-2:-2 / analyse=0x3:0x133 / me=umh / subme=10 / psy=1 / psy_rd=0.95:0.00 / mixed_ref=1 / me_range=24 / chroma_me=1 / trellis=2 / 8x8dct=1 / cqm=0 / deadzone=21,11 / fast_pskip=0 / chroma_qp_offset=-2 / threads=12 / lookahead_threads=2 / sliced_threads=0 / nr=0 / decimate=0 / interlaced=0 / bluray_compat=0 / constrained_intra=0 / bframes=7 / b_pyramid=2 / b_adapt=2 / b_bias=0 / direct=3 / weightb=1 / open_gop=0 / weightp=2 / keyint=250 / keyint_min=25 / scenecut=40 / intra_refresh=0 / rc=2pass / mbtree=0 / bitrate=1676 / ratetol=1.0 / qcomp=0.70 / qpmin=0 / qpmax=39 / qpstep=4 / cplxblur=20.0 / qblur=0.5 / ip_ratio=1.35 / pb_ratio=1.25 / aq=1:0.90
Язык : English
Default : Да
Forced : Нет
Основные цвета : BT.601 PAL
Характеристики трансфера : BT.470 System B, BT.470 System G
Коэффициенты матрицы : BT.601
Аудио
Идентификатор : 2
Формат : AC-3
Формат/Информация : Audio Coding 3
Расширение режима : CM (complete main)
Параметр Endianness формата : Big
Идентификатор кодека : A_AC3
Продолжительность : 1 ч. 52 м.
Вид битрейта : Постоянный
Битрейт : 192 Кбит/сек
Каналы : 2 канала
Расположение каналов : Front: L R
Частота : 48,0 КГц
Битовая глубина : 16 бит
Метод сжатия : С потерями
Размер потока : 154 Мбайт (10%)
Язык : Russian
Default : Да
Forced : Нет
Скачать

Скачать торрент!

Как скачивать? · Что такое торрент? · Рейтинг и ограничения

Сайт не распространяет и не хранит электронные версии произведений, а лишь предоставляет доступ к создаваемому пользователями каталогу ссылок на торрент-файлы, которые содержат только списки хеш-сумм

[Профиль] [ЛС]
Показать сообщения:    
Ответить на тему

Текущее время: Сегодня 16:30

Часовой пояс: GMT + 4



Вы не можете начинать темы
Вы не можете отвечать на сообщения
Вы не можете редактировать свои сообщения
Вы не можете удалять свои сообщения
Вы не можете голосовать в опросах
Вы не можете прикреплять файлы к сообщениям
Вы не можете скачивать файлы