Роль (Константин Лопушанский) [2013, Драма, DVDRip]

Ответить на тему
 
Автор Сообщение

user ®

Стаж: 7 лет 7 месяцев

Сообщений: 20008

Пост Пост: #1 от 08-Апр-2014 21:30

[Цитировать]

Роль
Жанр: Драма
Год выпуска: 2013
Продолжительность: 01:55:43
Режиссёр: Константин Лопушанский
В ролях: Максим Суханов, Мария Ярвенхельми. Леонид Мозговой, Анастасия Шевелёва, Дмитрий Сутырин, Алёна Сидорова, Карина Медведева, Сергей Юревич
Описание: Черно-белый фильм, события в котором происходят в Петрограде в начале 20-х годов прошлого века. История талантливого актёра, одержимого идеями Серебряного века, и в согласии с идеями символизма он готов прожить чужую жизнь, а точнее, сыграть ее словно роль. Актёр попадает в плен к красным и оказывается как две капли воды похож на красного командира, который собирается его расстрелять. После смерти командира артист решает сыграть роль погибшего, согласно новому театральному веянию - когда часть театральной общественности считала, что театр надо выводить в жизнь, на улицы, что театр должен слиться с жизнью.
Доп. информация: [
«Роль» — фильм 2013 года режиссёра Константина Лопушанского . Производством картины занималась кинокомпания Proline Film. При участии киностудий «Ленфильм» и «Беларусьфильм», а также студий BUFO (Финляндия) и SIGMA (Германия), при поддержке Министерства культуры РФ, Министерства культуры Республики Беларусь, а также фонда Eurimages.
Фильм принимал участие в конкурсной программе 35-го Московского международного кинофестиваля
Фильм получил премию «Ника» за лучшую сценарную работу (Павел Финн и Константин Лопушанский). Максим Суханов номинировался на премию «Ника» за лучшую мужскую роль.
Сэмпл: http://multi-up.com/965586
Качество видео: DVDRip
Формат видео: AVI
Видео: XVID, 720x400, (16:9), 25,000 кадров/сек, 1351 Кбит/сек
Аудио: AC-3, 48,0 КГц, 448 Кбит/сек (6 каналов)

MediaInfo

Формат : AVI
Формат/Информация : Audio Video Interleave
Размер файла : 1,46 Гбайт
Продолжительность : 1 ч. 55 м.
Общий поток : 1809 Кбит/сек
Программа кодирования : VirtualDubMod 1.5.10.3 | www.virtualdub-fr.org || (build 2550/release)
Библиотека кодирования : VirtualDubMod build 2550/release
Видео
Идентификатор : 0
Формат : MPEG-4 Visual
Профиль формата : Advanced Simple@L5
Параметр BVOP формата : 2
Параметр QPel формата : Нет
Параметр GMC формата : Без точки перехода
Параметр матрицы формата : Default (MPEG)
Идентификатор кодека : XVID
Идентификатор кодека/Подсказка : XviD
Продолжительность : 1 ч. 55 м.
Битрейт : 1351 Кбит/сек
Ширина : 720 пикселей
Высота : 400 пикселей
Соотношение сторон : 16:9
Частота кадров : 25,000 кадров/сек
Цветовое пространство : YUV
Субдискретизация насыщенности : 4:2:0
Битовая глубина : 8 бит
Тип развёртки : Прогрессивная
Метод сжатия : С потерями
Бит/(Пиксели*Кадры) : 0.188
Размер потока : 1,09 Гбайт (75%)
Библиотека кодирования : XviD 1.2.1 (UTC 2008-12-04)
Аудио
Идентификатор : 1
Формат : AC-3
Формат/Информация : Audio Coding 3
Расширение режима : CM (complete main)
Параметр Endianness формата : Big
Идентификатор кодека : 2000
Продолжительность : 1 ч. 55 м.
Вид битрейта : Постоянный
Битрейт : 448 Кбит/сек
Каналы : 6 каналов
Расположение каналов : Front: L C R, Side: L R, LFE
Частота : 48,0 КГц
Битовая глубина : 16 бит
Метод сжатия : С потерями
Размер потока : 371 Мбайт (25%)
Выравнивание : Разделение по промежуткам
Продолжительность промежутка : 40 мс. (1,00 видеокадр)
Время предзагрузки промежутка : 500 мс.

Скриншот c названием фильма

Скриншоты

Скачать

Скачать торрент!

Как скачивать? · Что такое торрент? · Рейтинг и ограничения

Сайт не распространяет и не хранит электронные версии произведений, а лишь предоставляет доступ к создаваемому пользователями каталогу ссылок на торрент-файлы, которые содержат только списки хеш-сумм

[Профиль] [ЛС]
Показать сообщения:    
Ответить на тему

Текущее время: Сегодня 15:35

Часовой пояс: GMT + 4



Вы не можете начинать темы
Вы не можете отвечать на сообщения
Вы не можете редактировать свои сообщения
Вы не можете удалять свои сообщения
Вы не можете голосовать в опросах
Вы не можете прикреплять файлы к сообщениям
Вы не можете скачивать файлы