Джеймси / Jamesy Boy (Тревор Уайт / Trevor White) [2014, США, драма, мелодрама, криминал, семейный, биография, BDRip] VO (datynet)

Ответить на тему
 
Автор Сообщение

user ®

Стаж: 7 лет 7 месяцев

Сообщений: 20008

Пост Пост: #1 от 08-Апр-2014 21:30

[Цитировать]

Джеймси / Jamesy Boy-«Никогда не сдавайся»- Страна: США
Жанр: драма, мелодрама, криминал, семейный, биография
Год выпуска: 2014
Продолжительность: 01:49:34
Перевод: Одноголосый закадровый datynet
Cубтитры: нет
Режиссер: Тревор Уайт / Trevor White
В ролях: Спенсер Лофранко, Мэри-Луиз Паркер, Винг Реймз, Джеймс Вудс, Таисса Фармига, Роза Салазар, Бен Розенфилд, Табу, Аарон Опара, Роберт Ф. Чю
Описание: Будучи подростком, Джеймс стал членом одной из уличных бригад, и этот путь приводит его за решетку. В тюрьме он встречает убийцу (Винг Рэймс), и это знакомство помогает герою кинокартины «Джеймси» иными глазами увидеть свою жизнь, в которой появляется надежда на более счастливое будущее.
Фильм «Джеймси» (Jamesy Boy) – правдивая история Джеймса Бёрнса (Спенсер Лофранко), молодого члена банды, чья жизнь переворачивается после того, как он заводит дружбу с преступником, превратившимся в его наставника.
Сэмпл: http://multi-up.com/964909
Качество видео: BDRip (Jamesy Boy.2014.BDRemux.1080p)
Формат видео: AVI
Видео: 720x304 (2.35:1), 23.976 fps, XviD MPEG-4 ~1571 kbps avg, 0.299 bit/pixel
Аудио: 48 kHz, AC3 Dolby Digital, 2/0 (L,R) ch, ~192 kbps - Любительский (одноголосый закадровый)datynet
&

MediaInfo

Общее
Полное имя : D:\Рипы\Jamesy.Boy.2014.BDRip.avi
Формат : AVI
Формат/Информация : Audio Video Interleave
Размер файла : 1,36 Гбайт
Продолжительность : 1 ч. 49 м.
Общий поток : 1773 Кбит/сек
Название фильма : Jamesy.Boy.2014.BDRip
Режиссёр : rip by maygli
Программа кодирования : VirtualDubModRus 1.5.10.2 (build 2542/release)
Правообладатель : ... (RG Rulya74)
Видео
Идентификатор : 0
Формат : MPEG-4 Visual
Профиль формата : Advanced Simple@L5
Параметр BVOP формата : 1
Параметр QPel формата : Нет
Параметр GMC формата : Без точки перехода
Параметр матрицы формата : Выборочная
Идентификатор кодека : XVID
Идентификатор кодека/Подсказка : XviD
Продолжительность : 1 ч. 49 м.
Битрейт : 1571 Кбит/сек
Ширина : 720 пикселей
Высота : 304 пикселя
Соотношение сторон : 2,35:1
Частота кадров : 23,976 кадра/сек
Цветовое пространство : YUV
Субдискретизация насыщенности : 4:2:0
Битовая глубина : 8 бит
Тип развёртки : Прогрессивная
Метод сжатия : С потерями
Бит/(Пиксели*Кадры) : 0.299
Размер потока : 1,20 Гбайт (89%)
Библиотека кодирования : XviD 65
Аудио
Идентификатор : 1
Формат : AC-3
Формат/Информация : Audio Coding 3
Расширение режима : CM (complete main)
Параметр Endianness формата : Big
Идентификатор кодека : 2000
Продолжительность : 1 ч. 49 м.
Вид битрейта : Постоянный
Битрейт : 192 Кбит/сек
Каналы : 2 канала
Расположение каналов : Front: L R
Частота : 48,0 КГц
Битовая глубина : 16 бит
Метод сжатия : С потерями
Размер потока : 150 Мбайт (11%)
Выравнивание : Разделение по промежуткам
Продолжительность промежутка : 42 мс. (1,00 видеокадр)
Время предзагрузки промежутка : 500 мс.
Заголовок : Любительский (одноголосый закадровый)

Скриншот c названием фильма

Скриншоты

Скачать

Скачать торрент!

Как скачивать? · Что такое торрент? · Рейтинг и ограничения

Сайт не распространяет и не хранит электронные версии произведений, а лишь предоставляет доступ к создаваемому пользователями каталогу ссылок на торрент-файлы, которые содержат только списки хеш-сумм

[Профиль] [ЛС]
Показать сообщения:    
Ответить на тему

Текущее время: Сегодня 14:12

Часовой пояс: GMT + 4



Вы не можете начинать темы
Вы не можете отвечать на сообщения
Вы не можете редактировать свои сообщения
Вы не можете удалять свои сообщения
Вы не можете голосовать в опросах
Вы не можете прикреплять файлы к сообщениям
Вы не можете скачивать файлы