20 футов под землёй: И пала тьма / 20 Ft Below: The Darkness Descending (Марк Клебанофф / Marc Clebanoff) [2014, США, Триллер, WEB-DLRip] DVO (DeadSno & den904) + Original Eng

Ответить на тему
 
Автор Сообщение

user ®

Стаж: 7 лет 7 месяцев

Сообщений: 20008

Пост Пост: #1 от 07-Апр-2014 20:45

[Цитировать]

20 футов под землёй: И пала тьма / 20 Ft Below: The Darkness Descending
Страна: США
Жанр: Триллер
Год выпуска: 2014
Продолжительность: 01:36:05
Перевод: Любительский (двухголосый закадровый) DeadSno & den904
Cубтитры: нет
Оригинальная аудиодорожка: английский
Режиссер: Марк Клебанофф / Marc Clebanoff
В ролях: Дэнни Трехо, Кинга Филиппс, Фрэнк Крюгер, Джон Хенниган, Тиффани Адамс, Кристофф Ст. Джон, Луис Мэндилор, Майкл Рене Уолтон, Даррен Дарнбаро, Чейз Остин
Описание: Эта история расскажет нам о тайнах многочисленных заброшенных тоннелей метро, расположенных под " никогда не спящими" улицами Нью-Йорка. Здесь в забытом людьми таинственном месте скрывается мрачный и опасный мир. Однажды, молодая девушка отправляется в эти тоннели для того, чтобы снять о них документальный фильм. Все бы ничего, но внезапно она поймет, что там царствует нечто на много страшнее беспросветной тьмы.
Доп. информация:
Kinopoisk
IMDB
Сэмпл: http://multi-up.com/965173
Качество видео: WEB-DLRip
Формат видео: AVI
Видео: Xvid 720x400 23.976fps 1 511 Kbps
Аудио: Dolby AC3 48000Hz stereo 192kbps

MediaInfo

General
Complete name : \20.Ft.Below.The.Darkness.Descending.2014.WEB.DLRip.avi
Format : AVI
Format/Info : Audio Video Interleave
File size : 1.32 GiB
Duration : 1h 36mn
Overall bit rate : 1 973 Kbps
Writing application : VirtualDubMod 1.5.10.2 (build 2542/release)
Writing library : VirtualDubMod build 2542/release
Video
ID : 0
Format : MPEG-4 Visual
Format profile : Advanced Simple@L5
Format settings, BVOP : Yes
Format settings, QPel : No
Format settings, GMC : No warppoints
Format settings, Matrix : Default (H.263)
Codec ID : XVID
Codec ID/Hint : XviD
Duration : 1h 36mn
Bit rate : 1 511 Kbps
Width : 720 pixels
Height : 400 pixels
Display aspect ratio : 16:9
Frame rate : 23.976 fps
Color space : YUV
Chroma subsampling : 4:2:0
Bit depth : 8 bits
Scan type : Progressive
Compression mode : Lossy
Bits/(Pixel*Frame) : 0.219
Stream size : 1.01 GiB (77%)
Writing library : XviD 73
Audio #1
ID : 1
Format : AC-3
Format/Info : Audio Coding 3
Mode extension : CM (complete main)
Format settings, Endianness : Big
Codec ID : 2000
Duration : 1h 36mn
Bit rate mode : Constant
Bit rate : 192 Kbps
Channel count : 2 channels
Channel positions : Front: L R
Sampling rate : 48.0 KHz
Bit depth : 16 bits
Compression mode : Lossy
Stream size : 132 MiB (10%)
Alignment : Split accross interleaves
Interleave, duration : 42 ms (1.00 video frame)
Interleave, preload duration : 500 ms
Audio #2
ID : 2
Format : AC-3
Format/Info : Audio Coding 3
Mode extension : CM (complete main)
Format settings, Endianness : Big
Codec ID : 2000
Duration : 1h 36mn
Bit rate mode : Constant
Bit rate : 256 Kbps
Channel count : 2 channels
Channel positions : Front: L R
Sampling rate : 48.0 KHz
Bit depth : 16 bits
Compression mode : Lossy
Stream size : 176 MiB (13%)
Alignment : Split accross interleaves
Interleave, duration : 42 ms (1.00 video frame)
Interleave, preload duration : 500 ms

Скриншот c названием фильма

Скриншоты

Скачать

Скачать торрент!

Как скачивать? · Что такое торрент? · Рейтинг и ограничения

Сайт не распространяет и не хранит электронные версии произведений, а лишь предоставляет доступ к создаваемому пользователями каталогу ссылок на торрент-файлы, которые содержат только списки хеш-сумм

[Профиль] [ЛС]
Показать сообщения:    
Ответить на тему

Текущее время: Сегодня 18:20

Часовой пояс: GMT + 4



Вы не можете начинать темы
Вы не можете отвечать на сообщения
Вы не можете редактировать свои сообщения
Вы не можете удалять свои сообщения
Вы не можете голосовать в опросах
Вы не можете прикреплять файлы к сообщениям
Вы не можете скачивать файлы