Рейд / The Raid: Redemption / Serbuan maut (Гарет Эванс / Gareth Evans) [2011, Индонезия, США, боевик, триллер, криминал, BDRip 720p] Dub + AVO (Сербин) + Original (Ind) + Subs (Rus, Eng)

Ответить на тему
 
Автор Сообщение

user ®

Стаж: 7 лет 7 месяцев

Сообщений: 20008

Пост Пост: #1 от 05-Апр-2014 05:40

[Цитировать]

Рейд / The Raid: Redemption / Serbuan maut
«Спецназ против мафии. Брат против брата. 30 этажей ада»
- Год выпуска: 2011
Выпущено: Индонезия, США / Celluloid Dreams
Жанр: боевик, триллер, криминал
Продолжительность: 01:41:04
Перевод (1): Профессиональный (полное дублирование) RUS BD _Саундтрек - Майк Шинода_
Перевод (2): Авторский (одноголосый закадровый) Юрий Сербин _Саундтрек - Майк Шинода_
Оригинальная аудиодорожка: Indonesian
Cубтитры: Русские, Английские-Режиссер:
Гарет Эванс / Gareth Evans-В ролях:
Ико Ювайс (Rama), Джо Таслим (Jaka), Дони Аламсях (Andi), Яян Рухьян (Mad Dog), Пьер Грюно (Wahyu), Рэй Сахетапи (Tama), Тегар Сатрия (Bowo), Ианг Дармаван (Gofar), Эка «Пиранья» Рахмадия (Dagu), Верди Солайман (Budi), Альфридиус Годфред (Machete Gang #1)-Описание:
Отряд спецназовцев получает задание проникнуть в многоэтажный дом, расположенный в самом сердце трущоб Джакарты, и арестовать обосновавшегося там наркобарона, которого охраняет целая армия вооруженных до зубов головорезов. Операцию нужно провести без лишнего шума, но нелепая случайность нарушает планы служителей закона. Теперь бойцам негде спрятаться и некуда бежать. Перед ними 30 этажей ада, где смертью грозит каждый неверный шаг. Война по правилам кончилась. Выживает сильнейший!-Релиз группы | IMDB | КиноПоиск | Сэмпл |Сохранены оригинальные чаптеры как на Blu-ray. |-Тип релиза: BDRip 720p [Рип: D-Z0N3]
Контейнер: MKV
Видео кодек: x264
Аудио кодек: DTS
Видео: 1280x720p at 23.976 fps, x264 High@L4.1, ~6984 kbps avg
Аудио #1: Russian: 48 kHz, DTS, 3/2 (L,C,R,l,r) + LFE ch, ~1510 kbps avg |Дубляж, RUS BD|
Аудио #2: Russian: 48 kHz, DTS, 3/2 (L,C,R,l,r) + LFE ch, ~1510 kbps avg |Авторский, Юрий Сербин|
Аудио #3: Indonesian: 48 kHz, DTS, 3/2 (L,C,R,l,r) + LFE ch, ~1510 kbps avg
-

Скриншоты

MediaInfo

General
Unique ID                                : 173466400331715674353993426310316132542 (0x828069D9752D4B68AB92EB1DD60F88BE)
Complete name                            : C:\The.Raid.Redemption.2011.BDRip.720p.2xRus.Eng.DTS.HDClub.mkv
Format                                   : Matroska
Format version                           : Version 2
File size                                : 8.13 GiB
Duration                                 : 1h 41mn
Overall bit rate                         : 11.5 Mbps
Movie name                               : The Raid Redemption 2011 Release for HDClub
Encoded date                             : UTC 2012-08-16 14:46:43
Writing application                      : mkvmerge v5.4.0 ('Piper') built on Mar 10 2012 13:34:39
Writing library                          : libebml v1.2.3 + libmatroska v1.3.0
Video
ID                                       : 1
Format                                   : AVC
Format/Info                              : Advanced Video Codec
Format profile                           : High@L4.1
Format settings, CABAC                   : Yes
Format settings, ReFrames                : 9 frames
Codec ID                                 : V_MPEG4/ISO/AVC
Duration                                 : 1h 41mn
Bit rate                                 : 6 984 Kbps
Width                                    : 1 280 pixels
Height                                   : 720 pixels
Display aspect ratio                     : 16:9
Frame rate mode                          : Constant
Frame rate                               : 23.976 fps
Color space                              : YUV
Chroma subsampling                       : 4:2:0
Bit depth                                : 8 bits
Scan type                                : Progressive
Bits/(Pixel*Frame)                       : 0.316
Stream size                              : 4.77 GiB (59%)
Title                                    : The Raid Redemption 2011 720p HDClub
Writing library                          : x264 core 125 r2200 999b753
Encoding settings                        : cabac=1 / ref=9 / deblock=1:-3:-3 / analyse=0x3:0x113 / me=umh / subme=11 / psy=1 / psy_rd=1.10:0.20 / mixed_ref=1 / me_range=64 / chroma_me=1 / trellis=2 / 8x8dct=1 / cqm=0 / deadzone=21,11 / fast_pskip=0 / chroma_qp_offset=-3 / threads=12 / lookahead_threads=2 / sliced_threads=0 / nr=0 / decimate=0 / interlaced=0 / bluray_compat=0 / constrained_intra=0 / bframes=9 / b_pyramid=2 / b_adapt=2 / b_bias=0 / direct=3 / weightb=1 / open_gop=0 / weightp=2 / keyint=240 / keyint_min=23 / scenecut=40 / intra_refresh=0 / rc_lookahead=240 / rc=2pass / mbtree=1 / bitrate=6984 / ratetol=1.0 / qcomp=0.70 / qpmin=0 / qpmax=69 / qpstep=4 / cplxblur=20.0 / qblur=0.5 / vbv_maxrate=38000 / vbv_bufsize=30000 / nal_hrd=none / ip_ratio=1.40 / aq=2:1.20
Language                                 : English
Default                                  : Yes
Forced                                   : No
Audio #1
ID                                       : 2
Format                                   : DTS
Format/Info                              : Digital Theater Systems
Mode                                     : 16
Format settings, Endianness              : Big
Codec ID                                 : A_DTS
Duration                                 : 1h 41mn
Bit rate mode                            : Constant
Bit rate                                 : 1 509 Kbps
Channel(s)                               : 6 channels
Channel positions                        : Front: L C R, Side: L R, LFE
Sampling rate                            : 48.0 KHz
Bit depth                                : 16 bits
Compression mode                         : Lossy
Stream size                              : 1.07 GiB (13%)
Title                                    : Дубляж RUS BD (DTS 5.1 1510 kbps)
Language                                 : Russian
Default                                  : Yes
Forced                                   : No
Audio #2
ID                                       : 3
Format                                   : DTS
Format/Info                              : Digital Theater Systems
Mode                                     : 16
Format settings, Endianness              : Big
Codec ID                                 : A_DTS
Duration                                 : 1h 41mn
Bit rate mode                            : Constant
Bit rate                                 : 1 509 Kbps
Channel(s)                               : 6 channels
Channel positions                        : Front: L C R, Side: L R, LFE
Sampling rate                            : 48.0 KHz
Bit depth                                : 24 bits
Compression mode                         : Lossy
Stream size                              : 1.07 GiB (13%)
Title                                    : Авторский одноголосый Ю.Сербин (DTS 5.1 1510 kbps)
Language                                 : Russian
Default                                  : No
Forced                                   : No
Audio #3
ID                                       : 4
Format                                   : DTS
Format/Info                              : Digital Theater Systems
Mode                                     : 16
Format settings, Endianness              : Big
Codec ID                                 : A_DTS
Duration                                 : 1h 41mn
Bit rate mode                            : Constant
Bit rate                                 : 1 509 Kbps
Channel(s)                               : 6 channels
Channel positions                        : Front: L C R, Side: L R, LFE
Sampling rate                            : 48.0 KHz
Bit depth                                : 24 bits
Compression mode                         : Lossy
Stream size                              : 1.07 GiB (13%)
Title                                    : Оригинал (DTS 5.1 1510 kbps)
Language                                 : Indonesian
Default                                  : No
Forced                                   : No
Text #1
ID                                       : 5
Format                                   : UTF-8
Codec ID                                 : S_TEXT/UTF8
Codec ID/Info                            : UTF-8 Plain Text
Title                                    : Русские
Language                                 : Russian
Default                                  : No
Forced                                   : No
Text #2
ID                                       : 6
Format                                   : UTF-8
Codec ID                                 : S_TEXT/UTF8
Codec ID/Info                            : UTF-8 Plain Text
Title                                    : Английские
Language                                 : English
Default                                  : No
Forced                                   : No
Menu
00:00:00.000                             : :00:00:00.000
00:06:15.125                             : :00:06:15.125
00:12:36.381                             : :00:12:36.381
00:17:37.765                             : :00:17:37.765
00:22:45.698                             : :00:22:45.698
00:27:06.917                             : :00:27:06.917
00:32:45.881                             : :00:32:45.881
00:37:27.495                             : :00:37:27.495
00:42:37.889                             : :00:42:37.889
00:48:49.927                             : :00:48:49.927
00:55:16.104                             : :00:55:16.104
00:59:58.720                             : :00:59:58.720
01:05:15.829                             : :01:05:15.829
01:10:53.332                             : :01:10:53.332
01:16:29.168                             : :01:16:29.168
01:30:09.779                             : :01:30:09.779

Интересные факты

- При подготовке актеров к съемкам их отправили на неделю на тренировочную базу морпехов под названием «КоПасКа» (Komando Pasukan Katak).
- Изначально музыки Майка Шиноды в фильме не было. Новый саундтрек был заказан Шиноде, лишь когда Sony Pictures купила «Рейд» для проката на территории США.
- Оригинальное название фильма в переводе с малайского — «Смертельный рейд».
- Актёр Яян Рухьян, который играет «Бешеного пса», когда-то был инструктором по рукопашному бою в секретной службе Индонезии.
- В фильме Анди произносит фразу «То что я делаю, я делаю очень хорошо. Но то что я делаю — не очень хорошо» — это фраза Росомахи. Впервые она была произнесена Росомахой в одноименном комиксе 1982 авторов Криса Клэрмонта и Фрэнка Миллера.
-
Скачать

Скачать торрент!

Как скачивать? · Что такое торрент? · Рейтинг и ограничения

Сайт не распространяет и не хранит электронные версии произведений, а лишь предоставляет доступ к создаваемому пользователями каталогу ссылок на торрент-файлы, которые содержат только списки хеш-сумм

[Профиль] [ЛС]
Показать сообщения:    
Ответить на тему

Текущее время: Сегодня 13:49

Часовой пояс: GMT + 4



Вы не можете начинать темы
Вы не можете отвечать на сообщения
Вы не можете редактировать свои сообщения
Вы не можете удалять свои сообщения
Вы не можете голосовать в опросах
Вы не можете прикреплять файлы к сообщениям
Вы не можете скачивать файлы