Сволочи (Александр Атанесян) [2006, боевик, драма, военный, HDDVDRip-AVC]

Ответить на тему
 
Автор Сообщение

user ®

Стаж: 7 лет 7 месяцев

Сообщений: 20008

Пост Пост: #1 от 05-Апр-2014 05:40

[Цитировать]

Сволочи«Ни любви, ни тоски, ни жалости»- Страна: Россия
Жанр: боевик, драма, военный
Год выпуска: 2006
Продолжительность: 01:37:14-Перевод: Не требуется
Cубтитры: отсутствуют
Навигация по главам: отсутствует-Режиссер: Александр Атанесян
В ролях: Андрей Панин, Андрей Краско, Александр Головин, Сергей Рыченков, Ростислав Бершауэр, А. Бобров, Олег Буганов, Кирилл Емельянов, Митя Горевой, Владимир Кашпур-Описание:
1943 год. Полковник Вишневецкий получает правительственное задание: подготовить диверсионную группу бойцов-смертников, которая должна блокировать действия отборных немецких соединений «Эдельвейс». Группа набирается из отчаянных мальчишек 14-15 лет, сирот, которых никто не будет искать.
Подростков отправляют в потайной горный лагерь, где они проходят специальную подготовку. Им предназначено уничтожить фашистскую военную базу и погибнуть, поскольку «носители особо секретной информации» не должны оставаться в живых.
-
Download sample-Качество видео: HDDVDRip-AVC |
Формат видео: MKV-Видео: 896x504 (16:9), 25.000 fps, x264 ~2243 kbps avg, 0.194 bit/pixel
Аудио: 48 kHz, AC3 Dolby Digital, 3/2 (L,C,R,l,r) + LFE ch, ~448 kbps avg-

MediaInfo

General
Unique ID : 198046950632341561755419371219836463130 (0x94FE748C088F8650BCDC5EB448EBE81A)
Complete name : D:\Фильмы\Рипы\Svolochi.2006.HDDVDRip-AVC.by Fredd Kruger.mkv
Format : Matroska
Format version : Version 2
File size : 1.83 GiB
Duration : 1h 37mn
Overall bit rate : 2 693 Kbps
Movie name : Svolochi (2006) - Release forby Fredd Kruger
Encoded date : UTC 2014-04-04 18:07:46
Writing application : mkvmerge v5.0.1 ('Es ist Sommer') built on Nov 6 2011 16:23:40
Writing library : libebml v1.2.2 + libmatroska v1.3.0
Attachment : Yes
Video
ID : 1
Format : AVC
Format/Info : Advanced Video Codec
Format profile : High@L4.1
Format settings, CABAC : Yes
Format settings, ReFrames : 15 frames
Codec ID : V_MPEG4/ISO/AVC
Duration : 1h 37mn
Bit rate : 2 192 Kbps
Width : 896 pixels
Height : 504 pixels
Display aspect ratio : 16:9
Frame rate mode : Constant
Frame rate : 25.000 fps
Color space : YUV
Chroma subsampling : 4:2:0
Bit depth : 8 bits
Scan type : Progressive
Bits/(Pixel*Frame) : 0.194
Stream size : 1.49 GiB (81%)
Title : Encode Fredd Kruger
Writing library : x264 core 142 r2409kMod d6b4e63
Encoding settings : cabac=1 / ref=15 / deblock=1:-2:-2 / analyse=0x3:0x133 / me=umh / subme=11 / psy=1 / fade_compensate=0.00 / psy_rd=0.95:0.05 / mixed_ref=1 / me_range=64 / chroma_me=1 / trellis=2 / 8x8dct=1 / cqm=0 / deadzone=21,11 / fast_pskip=1 / chroma_qp_offset=-3 / threads=12 / lookahead_threads=3 / sliced_threads=0 / nr=0 / decimate=1 / interlaced=0 / bluray_compat=0 / constrained_intra=0 / fgo=0 / bframes=13 / b_pyramid=2 / b_adapt=2 / b_bias=0 / direct=3 / weightb=1 / open_gop=0 / weightp=2 / keyint=250 / keyint_min=23 / scenecut=40 / intra_refresh=0 / rc_lookahead=60 / rc=crf / mbtree=0 / crf=19.1000 / qcomp=0.60 / qpmin=0 / qpmax=69 / qpstep=4 / vbv_maxrate=50000 / vbv_bufsize=62500 / crf_max=0.0 / nal_hrd=none / filler=0 / ip_ratio=1.30 / pb_ratio=1.20 / aq=3:0.80 / zones=141338,145858,q=30
Default : Yes
Forced : No
Color primaries : BT.709
Transfer characteristics : BT.709
Matrix coefficients : BT.709
Audio
ID : 2
Format : AC-3
Format/Info : Audio Coding 3
Mode extension : CM (complete main)
Format settings, Endianness : Big
Codec ID : A_AC3
Duration : 1h 37mn
Bit rate mode : Constant
Bit rate : 448 Kbps
Channel count : 6 channels
Channel positions : Front: L C R, Side: L R, LFE
Sampling rate : 48.0 KHz
Bit depth : 16 bits
Compression mode : Lossy
Stream size : 312 MiB (17%)
Language : Russian
Default : Yes
Forced : No

x264 log

x264 [info]: frame I:997 Avg QP:18.83 size: 56732 PSNR Mean Y:45.13 U:49.99 V:51.19 Avg:46.27 Global:45.58
x264 [info]: frame P:31910 Avg QP:20.58 size: 21135 PSNR Mean Y:43.40 U:48.94 V:50.54 Avg:44.62 Global:43.77
x264 [info]: frame B:112952 Avg QP:21.55 size: 8010 PSNR Mean Y:42.96 U:48.72 V:50.48 Avg:44.23 Global:43.45
x264 [info]: consecutive B-frames: 2.4% 2.9% 8.0% 17.3% 14.5% 45.4% 5.1% 2.0% 1.1% 0.4% 0.3% 0.2% 0.1% 0.3%
x264 [info]: mb I I16..4: 3.7% 80.8% 15.6%
x264 [info]: mb P I16..4: 0.6% 11.4% 1.4% P16..4: 29.8% 32.9% 13.0% 1.8% 0.2% skip: 8.9%
x264 [info]: mb B I16..4: 0.1% 1.4% 0.1% B16..8: 34.2% 19.9% 3.4% direct: 7.5% skip:33.4% L0:38.5% L1:44.9% BI:16.7%
x264 [info]: 8x8 transform intra:84.8% inter:60.4%
x264 [info]: direct mvs spatial:100.0% temporal:0.0%
x264 [info]: coded y,uvDC,uvAC intra: 89.8% 77.0% 43.2% inter: 29.0% 17.5% 2.0%
x264 [info]: i16 v,h,dc,p: 36% 9% 6% 48%
x264 [info]: i8 v,h,dc,ddl,ddr,vr,hd,vl,hu: 11% 6% 7% 10% 14% 14% 13% 12% 13%
x264 [info]: i4 v,h,dc,ddl,ddr,vr,hd,vl,hu: 14% 6% 5% 8% 15% 15% 13% 11% 12%
x264 [info]: i8c dc,h,v,p: 36% 27% 21% 17%
x264 [info]: Weighted P-Frames: Y:5.0% UV:2.5%
x264 [info]: ref P L0: 45.7% 13.4% 16.4% 5.0% 4.6% 3.1% 2.9% 1.5% 1.5% 1.2% 1.2% 0.9% 0.9% 0.8% 0.9% 0.1%
x264 [info]: ref B L0: 82.4% 8.7% 3.0% 1.5% 1.0% 0.9% 0.7% 0.4% 0.4% 0.3% 0.3% 0.3% 0.2% 0.1%
x264 [info]: ref B L1: 95.3% 4.7%
x264 [info]: SSIM Mean Y:0.9748848 (16.001db)
x264 [info]: PSNR Mean Y:43.074 U:48.778 V:50.501 Avg:44.327 Global:43.530 kb/s:2242.86
x264 [total]: encoded 145859 frames, 12.45 fps, 2242.86 kb/s

Comparison

Source

Encode
Скачать

Скачать торрент!

Как скачивать? · Что такое торрент? · Рейтинг и ограничения

Сайт не распространяет и не хранит электронные версии произведений, а лишь предоставляет доступ к создаваемому пользователями каталогу ссылок на торрент-файлы, которые содержат только списки хеш-сумм

[Профиль] [ЛС]
Показать сообщения:    
Ответить на тему

Текущее время: Сегодня 08:37

Часовой пояс: GMT + 4



Вы не можете начинать темы
Вы не можете отвечать на сообщения
Вы не можете редактировать свои сообщения
Вы не можете удалять свои сообщения
Вы не можете голосовать в опросах
Вы не можете прикреплять файлы к сообщениям
Вы не можете скачивать файлы