Миссис Уинтерборн / Мужчина моей мечты / Mrs. Winterbourne (Ричард Бенджамин / Richard Benjamin) [1996, США, драма, мелодрама, комедия, WEB-DL 720p] MVO + Sub Eng + Original Eng

Ответить на тему
 
Автор Сообщение

user ®

Стаж: 7 лет 7 месяцев

Сообщений: 20008

Пост Пост: #1 от 04-Апр-2014 18:50

[Цитировать]

Миссис Уинтерборн / Мужчина моей мечты / Mrs. Winterbourne
Страна: США
Жанр: драма, мелодрама, комедия
Год выпуска: 1996
Продолжительность: 01:46:00
Перевод: Профессиональный (многоголосый закадровый)
Cубтитры: английские
Оригинальная аудиодорожка: английский
Режиссер: Ричард Бенджамин / Richard Benjamin
В ролях: Рики Лейк, Брендан Фрейзер, Ширли МакЛейн, Лорен Дин, Мигель Сандовал, Питер Герети, Джейн Краковски, Дебра Монк, Катрин Де Прюм, Кейт Хенниг...
Описание: Восемнадцатилетняя Конни Дойл в отчаянии. Ее друг тотчас выгнал ее на улицу, узнав, что вскоре станет отцом. Конни садится в поезд до Бостона и попадает в одно купе с молодой супружеской парой — Хью и Патрицией Уинтерборн, — тоже ожидающей ребенка. Заметив восхищение, с которым Конни разглядывает обручальное кольцо Патриции, та великодушно дает ей его примерить. В это самое мгновение поезд попадает в страшную катастрофу. Конни приходит в себя в больнице, где на ее руке вместе с кольцом красуется бирка с фамилией Уинтерборн. Так, по воле случая, Конни становится Патрицией, которая погибла при крушении поезда вместе с мужем…
Сэмпл: http://multi-up.com/964404
Тип релиза: WEB-DL 720p
Контейнер: MKV
Видео: 1280x720 (16:9), 23.976 fps, AVC, ~3954 Kbps, 0.179 bits/pixel
Аудио 1: Russian, 48.0 KHz, AC3, 6 ch, 448 Kbps
Аудио 2: English, 48.0 KHz, AC3, 6 ch, 448 Kbps
Формат субтитров: softsub (SRT)

MediaInfo

General
Unique ID : 215838220141236108727090896260280492060 (0xA260EDDB8CEEEB7DADE9B06C45EA201C)
Complete name : D:\Mrs. Winterbourne.mkv
Format : Matroska
Format version : Version 4 / Version 2
File size : 3.66 GiB
Duration : 1h 46mn
Overall bit rate : 4 948 Kbps
Encoded date : UTC 2014-04-03 02:48:15
Writing application : mkvmerge v6.8.0 ('Theme for Great Cities') 64bit built on Mar 2 2014 21:34:26
Writing library : libebml v1.3.0 + libmatroska v1.4.1
Video
ID : 1
Format : AVC
Format/Info : Advanced Video Codec
Format profile : High@L3.1
Format settings, CABAC : No
Format settings, ReFrames : 2 frames
Codec ID : V_MPEG4/ISO/AVC
Duration : 1h 46mn
Bit rate : 3 954 Kbps
Width : 1 280 pixels
Height : 720 pixels
Display aspect ratio : 16:9
Frame rate mode : Constant
Frame rate : 23.976 fps
Color space : YUV
Chroma subsampling : 4:2:0
Bit depth : 8 bits
Scan type : Progressive
Bits/(Pixel*Frame) : 0.179
Stream size : 2.93 GiB (80%)
Default : Yes
Forced : No
Color primaries : BT.709
Transfer characteristics : BT.709
Matrix coefficients : BT.709
Audio #1
ID : 2
Format : AC-3
Format/Info : Audio Coding 3
Mode extension : CM (complete main)
Format settings, Endianness : Big
Codec ID : A_AC3
Duration : 1h 46mn
Bit rate mode : Constant
Bit rate : 448 Kbps
Channel(s) : 6 channels
Channel positions : Front: L C R, Side: L R, LFE
Sampling rate : 48.0 KHz
Bit depth : 16 bits
Compression mode : Lossy
Stream size : 340 MiB (9%)
Language : Russian
Default : No
Forced : No
Audio #2
ID : 3
Format : AC-3
Format/Info : Audio Coding 3
Mode extension : CM (complete main)
Format settings, Endianness : Big
Codec ID : A_AC3
Duration : 1h 46mn
Bit rate mode : Constant
Bit rate : 448 Kbps
Channel(s) : 6 channels
Channel positions : Front: L C R, Side: L R, LFE
Sampling rate : 48.0 KHz
Bit depth : 16 bits
Compression mode : Lossy
Stream size : 340 MiB (9%)
Language : English
Default : No
Forced : No
Text
ID : 4
Format : UTF-8
Codec ID : S_TEXT/UTF8
Codec ID/Info : UTF-8 Plain Text
Language : English
Default : No
Forced : No
Menu
00:00:00.000 : en:START
00:01:56.000 : en:BACK TO THE BEGINNING
00:03:33.000 : en:PREGNANT
00:06:02.000 : en:BIGGER & BIGGER
00:08:35.000 : en:GRAND CENTRAL STATION
00:10:20.000 : en:THE TRAIN TO BOSTON
00:12:08.000 : en:HUGH & PATRICIA WINTERBOURNE
00:15:48.000 : en:AT THE HOSPITAL
00:20:59.000 : en:"COMMIE'S DEAD"
00:23:23.000 : en:PACO
00:25:50.000 : en:TWO MRS. WINTERBOURNES
00:28:36.000 : en:OLD PICTURES OF THE BOYS
00:31:58.000 : en:DINNER WITH FATHER BRIAN
00:34:49.000 : en:RUDIMENTARY CONVERSATION SKILLS
00:40:38.000 : en:HANDLING A FEW PEOPLE
00:43:13.000 : en:"ON THE SUNNY SIDE OF THE SREET"
00:45:47.000 : en:A MOTHERLY CRITIQUE
00:48:51.000 : en:LUNCH WITH BILL
00:56:11.000 : en:PACO & THE TANGO
01:03:08.000 : en:A LETTER FOR PATRICIA
01:04:39.000 : en:PROS & CONS
01:13:00.000 : en:A FORMER CHORUS GIRL
01:16:38.000 : en:STEVE CRASHES THE REHEARSAL
01:20:48.000 : en:$50,000 & A BETTER IDEA
01:25:09.000 : en:DEAD WHEN SHE GOT THERE
01:33:22.000 : en:CONFESSING TO A MURDER
01:36:57.000 : en:"I'VE BEEN LYING TO YOU"
01:38:51.000 : en:THE CEREMONY

Скриншоты

Скачать

Скачать торрент!

Как скачивать? · Что такое торрент? · Рейтинг и ограничения

Сайт не распространяет и не хранит электронные версии произведений, а лишь предоставляет доступ к создаваемому пользователями каталогу ссылок на торрент-файлы, которые содержат только списки хеш-сумм

[Профиль] [ЛС]
Показать сообщения:    
Ответить на тему

Текущее время: Сегодня 06:10

Часовой пояс: GMT + 4



Вы не можете начинать темы
Вы не можете отвечать на сообщения
Вы не можете редактировать свои сообщения
Вы не можете удалять свои сообщения
Вы не можете голосовать в опросах
Вы не можете прикреплять файлы к сообщениям
Вы не можете скачивать файлы