Легенда о Динозавре / Kyoryuu: Kaicho no densetsu / The Legend of the Dinosaurs (Джунджи Курато /Junji Kurata) [1977, Япония, фантастика, ужасы, DVDRip] DVO

Ответить на тему
 
Автор Сообщение

user ®

Стаж: 11 лет

Сообщений: 15151

Пост Пост: #1 от 04-Апр-2014 15:40

[Цитировать]

Легенда о Динозавре / Kyoryuu: Kaicho no densetsu / The Legend of the Dinosaurs
Страна: Япония
Студия: Toei Company
Жанр: фантастика, ужасы
Год выпуска: 1977
Продолжительность: 01:32:26
Перевод: Профессиональный (двухголосый закадровый)
Cубтитры: нет
Оригинальная аудиодорожка: японский
Режиссер: Джунджи Курато /Junji Kurata
В ролях: Цунехико Ватасе /Tsunehiko Watase/, Нобико Савва /Nobiko Sawa/, Сетаро Хаяси /Shotaro Hayashi/, Томоко Киесима /Tomoko Kiyoshima/, Фуюкити Маки /Fuyukichi Maki/
Описание: Лето 1977 года. В расщелине у подножия горы Фудзияма найдены окаменевшие яйца динозавров. Миллионы лет пролежали они без движения, но природные катаклизмы пробудили их от спячки. И началось… Исчезают люди, на дорогах находят обезглавленных животных. Начинают оживать все новые и новые твари. Кто или что сможет остановить кровавую вакханалию?

IMDB
Доп. информация:
[url=http://***/forum/viewtopic.php?t=1315954]Исходник[/url]
Запись звука с канала XXI и синхронизация vedigo
Качество видео: DVDRip
Формат видео: AVI
Видео: Xvid 704x304 (2,35:1) 23.976fps Bit rate 1868Kbps b/p 0.364
Аудио 1: AC3 48.0 KHz 2ch. 192kbps rus dvo
Аудио 2: AC3 48.0 KHz 2ch. 192kbps jap

MediaInfo

Общее
Полное имя : E:\torrent\Legenda.O.Dinozavre.DVDRip.avi
Формат : AVI
Формат/Информация : Audio Video Interleave
Размер файла : 1,46 Гбайт
Продолжительность : 1 ч. 32 м.
Общий поток : 2266 Кбит/сек
Программа кодирования : VirtualDubMod 1.5.10.2 (build 2540/release)
Библиотека кодирования : VirtualDubMod build 2540/release
Видео
Идентификатор : 0
Формат : MPEG-4 Visual
Профиль формата : Advanced Simple@L5
Параметр BVOP формата : 2
Параметр QPel формата : Нет
Параметр GMC формата : Без точки перехода
Параметр матрицы формата : Default (H.263)
Идентификатор кодека : XVID
Идентификатор кодека/Подсказка : XviD
Продолжительность : 1 ч. 32 м.
Битрейт : 1868 Кбит/сек
Ширина : 704 пикселя
Высота : 304 пикселя
Соотношение сторон : 3:2
Соотношение сторон в оригинале : 2,35:1
Частота кадров : 23,976 кадра/сек
Цветовое пространство : YUV
Субдискретизация насыщенности : 4:2:0
Битовая глубина : 8 бит
Тип развёртки : Прогрессивная
Метод сжатия : С потерями
Бит/(Пиксели*Кадры) : 0.364
Размер потока : 1,21 Гбайт (82%)
Библиотека кодирования : XviD 1.2.1 (UTC 2008-12-04)
Аудио #1
Идентификатор : 1
Формат : AC-3
Формат/Информация : Audio Coding 3
Расширение режима : CM (complete main)
Параметр Endianness формата : Big
Идентификатор кодека : 2000
Продолжительность : 1 ч. 32 м.
Вид битрейта : Постоянный
Битрейт : 192 Кбит/сек
Каналы : 2 канала
Расположение каналов : Front: L R
Частота : 48,0 КГц
Битовая глубина : 16 бит
Метод сжатия : С потерями
Размер потока : 127 Мбайт (8%)
Выравнивание : Разделение по промежуткам
Продолжительность промежутка : 42 мс. (1,00 видеокадр)
Время предзагрузки промежутка : 500 мс.
Аудио #2
Идентификатор : 2
Формат : AC-3
Формат/Информация : Audio Coding 3
Расширение режима : CM (complete main)
Параметр Endianness формата : Big
Идентификатор кодека : 2000
Продолжительность : 1 ч. 32 м.
Вид битрейта : Постоянный
Битрейт : 192 Кбит/сек
Каналы : 2 канала
Расположение каналов : Front: L R
Частота : 48,0 КГц
Битовая глубина : 16 бит
Метод сжатия : С потерями
Размер потока : 127 Мбайт (8%)
Выравнивание : Разделение по промежуткам
Продолжительность промежутка : 42 мс. (1,00 видеокадр)
Время предзагрузки промежутка : 500 мс.

Скриншот c названием фильма

Скриншоты

Скачать

Скачать торрент! Легенда о Динозавре / Kyoryuu: Kaicho no densetsu / The Legend of the Dinosaurs (Джунджи Курато /Junji Kurata) [1977, Япония, фантастика, ужасы, DVDRip] DVO

Как скачивать? · Что такое торрент? · Рейтинг и ограничения

Сайт не распространяет и не хранит электронные версии произведений, а лишь предоставляет доступ к создаваемому пользователями каталогу ссылок на торрент-файлы, которые содержат только списки хеш-сумм

[Профиль] [ЛС]
Показать сообщения:    
Ответить на тему

Текущее время: Сегодня 23:53

Часовой пояс: GMT + 4



Вы не можете начинать темы
Вы не можете отвечать на сообщения
Вы не можете редактировать свои сообщения
Вы не можете удалять свои сообщения
Вы не можете голосовать в опросах
Вы не можете прикреплять файлы к сообщениям
Вы не можете скачивать файлы