Совместная поездка / Ride Along (Тим Стори / Tim Story) [2014, США, Криминал, комедия, HDRip] VO (qwerty)

Ответить на тему
 
Автор Сообщение

user ®

Стаж: 7 лет 7 месяцев

Сообщений: 20008

Пост Пост: #1 от 04-Апр-2014 15:40

[Цитировать]

Совместная поездка / Ride Along
Страна: США
Жанр: Криминал, комедия
Год выпуска: 2014
Продолжительность: 01:39:38
Перевод: Одноголосый закадровый qwerty
Cубтитры: нет
Режиссер: Тим Стори / Tim Story
В ролях: Кевин Харт, Айс Кьюб, Джон Легуизэмо, Брюс Макгилл, Тика Самптер, Брайан Коллен, Лоренс Фишбёрн, Драгош Букур, Эрик Бенсон, Джей Фэро
Описание: Вот уже два года охранник средней школы Бен только то и делает, что пытается доказать опытному детективу Джеймсу, что достоин его сестры Анджелы, своей будущей невесты. На этот раз, как следует из фильма «Совместная поездка» (Ride Along), он предпринимает очередной шаг, что влечет за собой самые сумасшедшие 24 часа в его жизни. Когда Бен, наконец, принят в полицейскую академию, он думает, что наконец-то заслужил руку и сердце Анджелы, и просит согласия будущего шурина на свадьбу. А тот, в свою очередь, приглашает героя кинокартины «Совместная поездка» отправиться вместе в рейд по городу. Но когда безумная ночь приведет их к самому печально известному бандиту в городе, Джеймс поймет, что слишком болтливый язык его нового напарника так же опасен, как и смертоносные пули.
Сэмпл: http://multi-up.com/964507
Качество видео: HDRip
Формат видео: AVI
Видео: XviD, 1763 Кбит/с, 720x304, 23,976 кадра/сек
Аудио: AC3, 2 ch, 192 Кбит/с, 48,0 КГц

MediaInfo

I:\Совместная поездка\S0vmestna9.poezdka.2013.L1.HDRip.1400MB.avi
General
Complete name : I:\Совместная поездка\S0vmestna9.poezdka.2013.L1.HDRip.1400MB.avi
Format : AVI
Format/Info : Audio Video Interleave
File size : 1.37 GiB
Duration : 1h 39mn
Overall bit rate : 1 964 Kbps
Writing application : VirtualDubMod 1.5.10.3 | www.virtualdub-fr.org || (build 2550/release)
Writing library : VirtualDubMod build 2550/release
Video #0
ID : 0
Format : MPEG-4 Visual
Format profile : Advanced Simple@L5
Format settings, BVOP : 2
Format settings, QPel : No
Format settings, GMC : No warppoints
Format settings, Matrix : Custom
Codec ID : XVID
Codec ID/Hint : XviD
Duration : 1h 39mn
Bit rate : 1 763 Kbps
Width : 720 pixels
Height : 304 pixels
Display aspect ratio : 2.35:1
Frame rate : 23.976 fps
Color space : YUV
Chroma subsampling : 4:2:0
Bit depth : 8 bits
Scan type : Progressive
Compression mode : Lossy
Bits/(Pixel*Frame) : 0.336
Stream size : 1.23 GiB (90%)
Writing library : XviD 1.2.1 (UTC 2008-12-04)
Audio #1
ID : 1
Format : AC-3
Format/Info : Audio Coding 3
Mode extension : CM (complete main)
Format settings, Endianness : Big
Codec ID : 2000
Duration : 1h 39mn
Bit rate mode : Constant
Bit rate : 192 Kbps
Channel count : 2 channels
Channel positions : Front: L R
Sampling rate : 48.0 KHz
Bit depth : 16 bits
Compression mode : Lossy
Stream size : 137 MiB (10%)
Alignment : Split accross interleaves
Interleave, duration : 42 ms (1.00 video frame)
Interleave, preload duration : 500 ms

Скриншот c названием фильма

Скриншоты

Скачать

Скачать торрент!

Как скачивать? · Что такое торрент? · Рейтинг и ограничения

Сайт не распространяет и не хранит электронные версии произведений, а лишь предоставляет доступ к создаваемому пользователями каталогу ссылок на торрент-файлы, которые содержат только списки хеш-сумм

[Профиль] [ЛС]
Показать сообщения:    
Ответить на тему

Текущее время: Сегодня 14:47

Часовой пояс: GMT + 4



Вы не можете начинать темы
Вы не можете отвечать на сообщения
Вы не можете редактировать свои сообщения
Вы не можете удалять свои сообщения
Вы не можете голосовать в опросах
Вы не можете прикреплять файлы к сообщениям
Вы не можете скачивать файлы