Первый Мститель: Другая Война / Captain America: The Winter Soldier (Энтони Руссо /Anthony Russo, Джо Руссо / Joe Russo, Джосс Уидон / Joss Whedon) [2014, США, Фантастика, Боевик, Приключения, CamRip] Dub

Ответить на тему
 
Автор Сообщение

user ®

Стаж: 7 лет 7 месяцев

Сообщений: 20008

Пост Пост: #1 от 04-Апр-2014 10:45

[Цитировать]

Первый Мститель: Другая Война / Captain America: The Winter Soldier
Страна: США
Жанр: Фантастика, Боевик, Приключения
Год выпуска: 2014
Продолжительность: 02:03:43
Перевод: Профессиональный (дублированный)
Cубтитры: Присутствуют вшитые субтитры.
Режиссер: Энтони Руссо /Anthony Russo, Джо Руссо / Joe Russo, Джосс Уидон / Joss Whedon
В ролях: Крис Эванс, Скарлетт Йоханссон, Роберт Редфорд, Сэмюэл Л. Джексон, Себастьян Стэн, Энтони Маки, Коби Смолдерс, Фрэнк Грилло, Максимилиано Эрнандес, Эмили ВанКэмп
Описание: После беспрецедентных событий, впервые собравших вместе команду Мстителей, Стив Роджерс, известный также как Капитан Америка, оседает в Вашингтоне и пытается приспособиться к жизни в современном мире. Но покой этому герою только снится — пытаясь помочь коллеге из агентства Щ. И. Т, Стив оказывается в центре событий, грозящих катастрофой мирового масштаба. Для того, чтобы разоблачить злодейский заговор, Капитан Америка объединяется с Черной вдовой. К ним также присоединяется новый соратник, известный как Ястреб, однако никто из них даже не подозревает, на что способен новый враг
Доп. информация:
Сэмпл: http://multi-up.com/964348
Качество видео: CamRip
Формат видео: AVI
Видео: XVID, 704x304 (2,35:1), 29,970 кадров/сек, 1454 Кбит/сек
Аудио: AC-3, 48,0 КГц, 128 Кбит/сек (2 канала)

MediaInfo

Формат : AVI
Формат/Информация : Audio Video Interleave
Размер файла : 1,38 Гбайт
Продолжительность : 2 ч. 3 м.
Общий поток : 1593 Кбит/сек
Программа кодирования : VirtualDubMod 1.5.10.2 (build 2540/release)
Библиотека кодирования : VirtualDubMod build 2540/release
Видео
Идентификатор : 0
Формат : MPEG-4 Visual
Профиль формата : Advanced Simple@L5
Параметр BVOP формата : 2
Параметр QPel формата : Нет
Параметр GMC формата : Без точки перехода
Параметр матрицы формата : Выборочная
Идентификатор кодека : XVID
Идентификатор кодека/Подсказка : XviD
Продолжительность : 2 ч. 3 м.
Битрейт : 1454 Кбит/сек
Ширина : 704 пикселя
Высота : 304 пикселя
Соотношение сторон : 2,35:1
Частота кадров : 29,970 кадров/сек
Цветовое пространство : YUV
Субдискретизация насыщенности : 4:2:0
Битовая глубина : 8 бит
Тип развёртки : Прогрессивная
Метод сжатия : С потерями
Бит/(Пиксели*Кадры) : 0.227
Размер потока : 1,26 Гбайт (91%)
Библиотека кодирования : XviD 1.2.1 (UTC 2008-12-04)
Аудио
Идентификатор : 1
Формат : AC-3
Формат/Информация : Audio Coding 3
Расширение режима : CM (complete main)
Параметр Endianness формата : Big
Идентификатор кодека : 2000
Продолжительность : 2 ч. 3 м.
Вид битрейта : Постоянный
Битрейт : 128 Кбит/сек
Каналы : 2 канала
Расположение каналов : Front: L R
Частота : 48,0 КГц
Битовая глубина : 16 бит
Метод сжатия : С потерями
Размер потока : 113 Мбайт (8%)
Выравнивание : Разделение по промежуткам
Продолжительность промежутка : 33 мс. (1,00 видеокадр)
Время предзагрузки промежутка : 500 мс.

Скриншоты

Интересные факты

๏̯͡๏ Фильм основан на серии комиксов Джо Саймона и Джека Кирби.
๏̯͡๏ Новый костюм Капитана взят из комиксов. Там он носил подобный, когда занимал должность директора организации Щ. И. Т.
๏̯͡๏ Авторами саундтрека к трейлеру фильма стали российские композиторы Александр Соколов, участник группы «I am waiting for you last summer», и Антон Новосельцев.
๏̯͡๏ События фильма разворачиваются через два года после событий, описанных в фильме «Мстители» (2012).
๏̯͡๏ При создании фильма режиссеры Энтони Руссо и Джо Руссо черпали вдохновение из фильма «Три дня Кондора» (1975
๏̯͡๏ Съемки фильма начались 1 апреля 2013 года на студии Manhattan Beach Studios. Первой снимали сцену нападения в лифте
๏̯͡๏ На роль Зимнего солдата прослушивались Николай Костер-Вальдау, Кевин Дюран и Джош Холлоуэй.
Скачать

Скачать торрент!

Как скачивать? · Что такое торрент? · Рейтинг и ограничения

Сайт не распространяет и не хранит электронные версии произведений, а лишь предоставляет доступ к создаваемому пользователями каталогу ссылок на торрент-файлы, которые содержат только списки хеш-сумм

[Профиль] [ЛС]
Показать сообщения:    
Ответить на тему

Текущее время: Сегодня 08:29

Часовой пояс: GMT + 4



Вы не можете начинать темы
Вы не можете отвечать на сообщения
Вы не можете редактировать свои сообщения
Вы не можете удалять свои сообщения
Вы не можете голосовать в опросах
Вы не можете прикреплять файлы к сообщениям
Вы не можете скачивать файлы