Почему ты не играешь в аду? / Why Don\'t You Play in Hell? / Jigoku de naze warui (Сион Соно / Sion Sono) [2013, Япония, Боевик, драма, HDRip] DVO (DeadSno & den904)

Ответить на тему
 
Автор Сообщение

user ®

Стаж: 11 лет

Сообщений: 15151

Пост Пост: #1 от 04-Апр-2014 01:15

[Цитировать]

Почему ты не играешь в аду? / Why Don't You Play in Hell? / Jigoku de naze warui
-Страна: Япония
Жанр: боевик, драма
Год выпуска: 2013
Продолжительность: 02:09:49-Перевод: Любительский (двухголосый закадровый) [DeadSno & den904]
Cубтитры: нет-Режиссер: Сион Соно / Sion Sono
В ролях: Хироки Хасегава, Ген Хошино, Акихиро Китамура, Дзюн Кунимура, Фуми Никайдо, Так Сакагути, Томочика, Синъити Цуцуми-Описание: Герой этого фильма задумал снять фильм о якудзе, который поразит зрителей жесткостью и реалистичностью. Но для этого ему приходится близко познакомится с миром японской мафии, а это чревато большими проблемами и для него, и для всей съемочной группы. Теперь молодому режиссеру предстоит пожалеть, что на съемках стало слишком много реализма, а льющаяся рекой кровь – совсем не бутафорская...- -Доп. информация: перевод на русский язык [akira9] - работа со звуком [Гуннлауг]
релиз: super12308-Сэмпл: http://sendfile.su/963134-Качество видео: HDRip
Формат видео: AVI
Видео: 720x304 (2.37:1), 23.976 fps, XviD build 64 ~1796 kbps avg, 0.34 bit/pixel
Аудио: 48 kHz, AC3 Dolby Digital, 3/2 (L,C,R,l,r) + LFE ch, ~448 kbps-

MediaInfo

Общее
Полное имя : Pochemu.ty.ne.igraesh.v.adu.2013.L2.HDRip.avi
Формат : AVI
Формат/Информация : Audio Video Interleave
Размер файла : 2,04 Гбайт
Продолжительность : 2 ч. 9 м.
Общий поток : 2254 Кбит/сек
Видео
Идентификатор : 0
Формат : MPEG-4 Visual
Профиль формата : Advanced Simple@L5
Параметр BVOP формата : 2
Параметр QPel формата : Нет
Параметр GMC формата : Без точки перехода
Параметр матрицы формата : Default (MPEG)
Идентификатор кодека : XVID
Идентификатор кодека/Подсказка : XviD
Продолжительность : 2 ч. 9 м.
Битрейт : 1797 Кбит/сек
Ширина : 720 пикселей
Высота : 304 пикселя
Соотношение сторон : 2,35:1
Частота кадров : 23,976 кадра/сек
Цветовое пространство : YUV
Субдискретизация насыщенности : 4:2:0
Битовая глубина : 8 бит
Тип развёртки : Прогрессивная
Метод сжатия : С потерями
Бит/(Пиксели*Кадры) : 0.342
Размер потока : 1,63 Гбайт (80%)
Библиотека кодирования : XviD 64
Аудио
Идентификатор : 1
Формат : AC-3
Формат/Информация : Audio Coding 3
Расширение режима : CM (complete main)
Параметр Endianness формата : Big
Идентификатор кодека : 2000
Продолжительность : 2 ч. 9 м.
Продолжительность оригинала : 2 ч. 9 м.
Вид битрейта : Постоянный
Битрейт : 448 Кбит/сек
Каналы : 6 каналов
Расположение каналов : Front: L C R, Side: L R, LFE
Частота : 48,0 КГц
Битовая глубина : 16 бит
Метод сжатия : С потерями
Размер потока : 416 Мбайт (20%)
Выравнивание : Соединение по промежуткам
Продолжительность промежутка : 42 мс. (1,00 видеокадр)

Скриншот c названием фильма

Скриншоты


Скачать

Скачать торрент! Почему ты не играешь в аду? / Why Don\'t You Play in Hell? / Jigoku de naze warui (Сион Соно / Sion Sono) [2013, Япония, Боевик, драма, HDRip] DVO (DeadSno & den904)

Как скачивать? · Что такое торрент? · Рейтинг и ограничения

Сайт не распространяет и не хранит электронные версии произведений, а лишь предоставляет доступ к создаваемому пользователями каталогу ссылок на торрент-файлы, которые содержат только списки хеш-сумм

[Профиль] [ЛС]
Показать сообщения:    
Ответить на тему

Текущее время: Сегодня 11:06

Часовой пояс: GMT + 4



Вы не можете начинать темы
Вы не можете отвечать на сообщения
Вы не можете редактировать свои сообщения
Вы не можете удалять свои сообщения
Вы не можете голосовать в опросах
Вы не можете прикреплять файлы к сообщениям
Вы не можете скачивать файлы