Сволочи (Александр Атанесян) [2006, боевик, драма, военный, HDDVDRip-AVC]

Ответить на тему
 
Автор Сообщение

user ®

Стаж: 7 лет 7 месяцев

Сообщений: 20008

Пост Пост: #1 от 04-Апр-2014 01:15

[Цитировать]

Сволочи«Ни любви, ни тоски, ни жалости»- Страна: Россия
Жанр: боевик, драма, военный
Год выпуска: 2006
Продолжительность: 01:37:14-Перевод: Не требуется
Cубтитры: отсутствуют
Навигация по главам: отсутствует-Режиссер: Александр Атанесян
В ролях: Андрей Панин, Андрей Краско, Александр Головин, Сергей Рыченков, Ростислав Бершауэр, А. Бобров, Олег Буганов, Кирилл Емельянов, Митя Горевой, Владимир Кашпур-Описание:
1943 год. Полковник Вишневецкий получает правительственное задание: подготовить диверсионную группу бойцов-смертников, которая должна блокировать действия отборных немецких соединений «Эдельвейс». Группа набирается из отчаянных мальчишек 14-15 лет, сирот, которых никто не будет искать.
Подростков отправляют в потайной горный лагерь, где они проходят специальную подготовку. Им предназначено уничтожить фашистскую военную базу и погибнуть, поскольку «носители особо секретной информации» не должны оставаться в живых.
-
Download sample-Качество видео: HDDVDRip-AVC | исх.
Формат видео: MKV-Видео: 1 152x648 (16:9), 25.000 fps, x264 ~4418 kbps avg, 0.232 bit/pixel
Аудио: 48 kHz, AC3 Dolby Digital, 3/2 (L,C,R,l,r) + LFE ch, ~448 kbps avg-

MediaInfo

General
Unique ID : 179032968930636668014907775798832383696 (0x86B07EDEF5DF360CB28AB23C6611C6D0)
Complete name : D:\Фильмы\Рипы\Svolochi.2006.HDDVDRip-AVC.Fredd Kruger.mkv
Format : Matroska
Format version : Version 2
File size : 3.31 GiB
Duration : 1h 37mn
Overall bit rate : 4 869 Kbps
Movie name : Svolochi (2006) - Release for by Fredd Kruger
Encoded date : UTC 2014-04-03 18:18:29
Writing application : mkvmerge v5.0.1 ('Es ist Sommer') built on Nov 6 2011 16:23:40
Writing library : libebml v1.2.2 + libmatroska v1.3.0
Attachment : Yes
Video
ID : 1
Format : AVC
Format/Info : Advanced Video Codec
Format profile : High@L4.1
Format settings, CABAC : Yes
Format settings, ReFrames : 15 frames
Codec ID : V_MPEG4/ISO/AVC
Duration : 1h 37mn
Bit rate : 4 324 Kbps
Width : 1 152 pixels
Height : 648 pixels
Display aspect ratio : 16:9
Frame rate mode : Constant
Frame rate : 25.000 fps
Color space : YUV
Chroma subsampling : 4:2:0
Bit depth : 8 bits
Scan type : Progressive
Bits/(Pixel*Frame) : 0.232
Stream size : 2.94 GiB (89%)
Title : Encode Fredd Kruger
Writing library : x264 core 142 r2409kMod d6b4e63
Encoding settings : cabac=1 / ref=15 / deblock=1:-2:-2 / analyse=0x3:0x133 / me=umh / subme=11 / psy=1 / fade_compensate=0.00 / psy_rd=0.95:0.10 / mixed_ref=1 / me_range=48 / chroma_me=1 / trellis=2 / 8x8dct=1 / cqm=0 / deadzone=21,11 / fast_pskip=1 / chroma_qp_offset=-3 / threads=12 / lookahead_threads=3 / sliced_threads=0 / nr=0 / decimate=1 / interlaced=0 / bluray_compat=0 / constrained_intra=0 / fgo=0 / bframes=13 / b_pyramid=2 / b_adapt=2 / b_bias=0 / direct=3 / weightb=1 / open_gop=0 / weightp=2 / keyint=250 / keyint_min=23 / scenecut=40 / intra_refresh=0 / rc_lookahead=60 / rc=crf / mbtree=0 / crf=18.8500 / qcomp=0.60 / qpmin=0 / qpmax=69 / qpstep=4 / vbv_maxrate=50000 / vbv_bufsize=62500 / crf_max=0.0 / nal_hrd=none / filler=0 / ip_ratio=1.30 / pb_ratio=1.20 / aq=3:0.80 / zones=141338,145858,q=30
Default : Yes
Forced : No
Color primaries : BT.709
Transfer characteristics : BT.709
Matrix coefficients : BT.709
Audio
ID : 2
Format : AC-3
Format/Info : Audio Coding 3
Mode extension : CM (complete main)
Format settings, Endianness : Big
Codec ID : A_AC3
Duration : 1h 37mn
Bit rate mode : Constant
Bit rate : 448 Kbps
Channel count : 6 channels
Channel positions : Front: L C R, Side: L R, LFE
Sampling rate : 48.0 KHz
Bit depth : 16 bits
Compression mode : Lossy
Stream size : 312 MiB (9%)
Language : Russian
Default : Yes
Forced : No

x264 log

x264 [info]: frame I:961 Avg QP:18.43 size: 87496 PSNR Mean Y:45.88 U:50.53 V:51.81 Avg:47.01 Global:46.33
x264 [info]: frame P:31158 Avg QP:19.95 size: 38995 PSNR Mean Y:44.32 U:49.43 V:51.25 Avg:45.51 Global:44.72
x264 [info]: frame B:113740 Avg QP:21.13 size: 16910 PSNR Mean Y:43.62 U:49.13 V:51.17 Avg:44.87 Global:44.14
x264 [info]: consecutive B-frames: 1.6% 2.4% 10.8% 15.3% 13.9% 47.9% 4.8% 1.3% 0.9% 0.3% 0.2% 0.1% 0.1% 0.3%
x264 [info]: mb I I16..4: 3.7% 85.5% 10.8%
x264 [info]: mb P I16..4: 0.8% 18.7% 1.1% P16..4: 28.5% 31.2% 11.2% 1.1% 0.1% skip: 7.3%
x264 [info]: mb B I16..4: 0.1% 2.6% 0.1% B16..8: 33.6% 20.3% 3.4% direct:10.7% skip:29.2% L0:38.1% L1:42.3% BI:19.6%
x264 [info]: 8x8 transform intra:90.5% inter:64.6%
x264 [info]: direct mvs spatial:99.1% temporal:0.9%
x264 [info]: coded y,uvDC,uvAC intra: 91.5% 76.1% 43.5% inter: 36.8% 22.3% 2.8%
x264 [info]: i16 v,h,dc,p: 38% 8% 6% 47%
x264 [info]: i8 v,h,dc,ddl,ddr,vr,hd,vl,hu: 11% 6% 9% 10% 13% 13% 12% 12% 13%
x264 [info]: i4 v,h,dc,ddl,ddr,vr,hd,vl,hu: 15% 6% 6% 8% 15% 15% 13% 11% 11%
x264 [info]: i8c dc,h,v,p: 36% 28% 20% 16%
x264 [info]: Weighted P-Frames: Y:4.5% UV:2.5%
x264 [info]: ref P L0: 43.3% 12.8% 17.8% 5.2% 5.1% 3.2% 3.1% 1.5% 1.6% 1.2% 1.3% 1.0% 1.0% 0.8% 0.9% 0.1%
x264 [info]: ref B L0: 83.4% 8.6% 2.6% 1.3% 1.0% 0.8% 0.6% 0.5% 0.3% 0.3% 0.2% 0.2% 0.1% 0.1%
x264 [info]: ref B L1: 95.9% 4.1%
x264 [info]: SSIM Mean Y:0.9764880 (16.287db)
x264 [info]: PSNR Mean Y:43.786 U:49.202 V:51.195 Avg:45.020 Global:44.268 kb/s:4418.48
x264 [total]: encoded 145859 frames, 7.71 fps, 4418.48 kb/s

Comparison

Source

Encode
Скачать

Скачать торрент!

Как скачивать? · Что такое торрент? · Рейтинг и ограничения

Сайт не распространяет и не хранит электронные версии произведений, а лишь предоставляет доступ к создаваемому пользователями каталогу ссылок на торрент-файлы, которые содержат только списки хеш-сумм

[Профиль] [ЛС]
Показать сообщения:    
Ответить на тему

Текущее время: Сегодня 20:06

Часовой пояс: GMT + 4



Вы не можете начинать темы
Вы не можете отвечать на сообщения
Вы не можете редактировать свои сообщения
Вы не можете удалять свои сообщения
Вы не можете голосовать в опросах
Вы не можете прикреплять файлы к сообщениям
Вы не можете скачивать файлы