Из пекла / Out of the Furnace (Скотт Купер / Scott Cooper) [2013, США, Великобритания, триллер, драма, криминал, BDRemux 1080p] VO (Есарев) + DVO (Jimmy J.) + DVO (Paradox) + Sub Rus, Eng + Original Eng

Ответить на тему
 
Автор Сообщение

user ®

Стаж: 7 лет 7 месяцев

Сообщений: 20008

Пост Пост: #1 от 03-Апр-2014 20:05

[Цитировать]

Из пекла / Out of the Furnace- Страна: США, Великобритания
Студия: Relativity Media
Жанр: триллер, драма, криминал
Год выпуска: 2013
Продолжительность: 01:56:07-Перевод: Одноголосый закадровый Д. Есарев
Перевод 2: Любительский (двухголосый закадровый) Jimmy J.
Перевод 3: Любительский (двухголосый закадровый) Студия "Paradox"
Cубтитры: Rus (Airbender131090), Eng, Eng (BD).
Оригинальная аудиодорожка: английский-Режиссер: Скотт Купер / Scott Cooper
В ролях: Кристиан Бэйл, Вуди Харрельсон, Кейси Аффлек, Форест Уитакер, Уиллем Дефо, Зои Салдана, Сэм Шепард, Дендри Тейлор, Карл Киарфалио, Нэнси Моссер
Описание: Когда Родни Бэйз таинственно исчезает, а правоохранительные органы при этом действуют недостаточно быстро, его старший брат Рассел берет дело в свои руки, чтобы добиться справедливости.-Сэмпл: sendfile→, rusfolder→
Тип релиза: BDRemux 1080p
Контейнер: MKV
Источник: Out of the Furnace 2013 1080p Blu-ray AVC DTS-HD MA 5.1-EbP
Видео: MPEG-4 AVC Video / 33068 kbps / 1080p / 23.976 fps / 16:9 / High Profile 4.1
Аудио: DTS-HD Master Audio / 5.1 / 48 kHz / 3702 kbps / 24-bit (DTS Core: 5.1 / 48 kHz / 1509 kbps / 24-bit) |AVO, Д. Есарев|
Аудио 2: 48 kHz, DD 5.1 - 448 kbps |DVO, Jimmy J.|
Аудио 3: 48 kHz, DD 2.0 - 224 kbps |DVO, Студия "Paradox"|
Аудио 4: DTS-HD Master Audio / 5.1 / 48 kHz / 3800 kbps / 24-bit (DTS Core: 5.1 / 48 kHz / 1509 kbps / 24-bit) |Оригинал|

MediaInfo

Полное имя : Out.of.the.Furnace.2013.1080p.BDRemux.AVC.DTS-HD.MA.5.1.3xRus.Eng.mkv
Формат : Matroska
Версия формата : Version 4 / Version 2
Размер файла : 33.5 GiB
Продолжительность : 1h 56mn
Режим общего битрейта : Variable
Общий поток : 41.3 Mbps
Название фильма : Out of the Furnace 2013 1080p Blu-ray AVC DTS-HD MA 5.1-EbP | BDRemux by Djex
Дата кодирования : UTC 2014-04-02 17:30:18
Программа кодирования : mkvmerge v6.5.0 ('Isn't she lovely') built on Oct 20 2013 12:50:05
Библиотека кодирования : libebml v1.3.0 + libmatroska v1.4.1
Video
Идентификатор : 1
Формат : AVC
Формат/Информация : Advanced Video Codec
Профиль формата : High@L4.1
Параметр CABAC формата : Yes
Параметр ReFrames формата : 2 frames
Идентификатор кодека : V_MPEG4/ISO/AVC
Продолжительность : 1h 56mn
Вид битрейта : Variable
Ширина : 1 920 pixels
Высота : 1 080 pixels
Соотношение сторон : 16:9
Режим частоты кадров : Constant
Частота кадров : 23.976 fps
Цветовое пространство : YUV
Субдискретизация насыщенности : 4:2:0
Битовая глубина : 8 bits
Тип развёртки : Progressive
Заголовок : Out of the Furnace (2013) by Djex
Default : Yes
Forced : No
Audio #1
Идентификатор : 2
Формат : DTS
Формат/Информация : Digital Theater Systems
Профиль формата : MA / Core
Режим : 16
Параметр Endianness формата : Big
Идентификатор кодека : A_DTS
Продолжительность : 1h 56mn
Вид битрейта : Variable
Битрейт : Unknown / 1 509 Kbps
Каналы : 6 channels
Расположение каналов : Front: L C R, Side: L R, LFE
Частота : 48.0 KHz
Битовая глубина : 24 bits
Метод сжатия : Lossless / Lossy
Заголовок : DTS-HD MA 5.1 ~ 3702 kbps |AVO, Д. Есарев|
Язык : Russian
Default : Yes
Forced : No
Audio #2
Идентификатор : 3
Формат : AC-3
Формат/Информация : Audio Coding 3
Расширение режима : CM (complete main)
Параметр Endianness формата : Big
Идентификатор кодека : A_AC3
Продолжительность : 1h 56mn
Вид битрейта : Constant
Битрейт : 448 Kbps
Каналы : 6 channels
Расположение каналов : Front: L C R, Side: L R, LFE
Частота : 48.0 KHz
Битовая глубина : 16 bits
Метод сжатия : Lossy
Размер потока : 372 MiB (1%)
Заголовок : DD 5.1 - 448 kbps |DVO, Jimmy J.|
Язык : Russian
Default : No
Forced : No
Audio #3
Идентификатор : 4
Формат : AC-3
Формат/Информация : Audio Coding 3
Расширение режима : CM (complete main)
Параметр Endianness формата : Big
Идентификатор кодека : A_AC3
Продолжительность : 1h 56mn
Вид битрейта : Constant
Битрейт : 224 Kbps
Каналы : 2 channels
Расположение каналов : Front: L R
Частота : 48.0 KHz
Битовая глубина : 16 bits
Метод сжатия : Lossy
Размер потока : 186 MiB (1%)
Заголовок : DD 2.0 - 224 kbps |DVO, "Paradox"|
Язык : Russian
Default : No
Forced : No
Audio #4
Идентификатор : 5
Формат : DTS
Формат/Информация : Digital Theater Systems
Профиль формата : MA / Core
Режим : 16
Параметр Endianness формата : Big
Идентификатор кодека : A_DTS
Продолжительность : 1h 56mn
Вид битрейта : Variable
Битрейт : Unknown / 1 509 Kbps
Каналы : 6 channels
Расположение каналов : Front: L C R, Side: L R, LFE
Частота : 48.0 KHz
Битовая глубина : 24 bits
Метод сжатия : Lossless / Lossy
Заголовок : DTS-HD MA 5.1 ~ 3800 kbps |Оригинал|
Язык : English
Default : No
Forced : No
Text #1
Идентификатор : 6
Формат : UTF-8
Идентификатор кодека : S_TEXT/UTF8
Идентификатор кодека/Информация : UTF-8 Plain Text
Заголовок : Airbender131090
Язык : Russian
Default : No
Forced : No
Text #2
Идентификатор : 7
Формат : UTF-8
Идентификатор кодека : S_TEXT/UTF8
Идентификатор кодека/Информация : UTF-8 Plain Text
Язык : English
Default : No
Forced : No
Text #3
Идентификатор : 8
Формат : VobSub
Режим смешивания : zlib
Идентификатор кодека : S_VOBSUB
Идентификатор кодека/Информация : The same subtitle format used on DVDs
Язык : English
Default : No
Forced : No

Скриншоты

Скачать

Скачать торрент!

Как скачивать? · Что такое торрент? · Рейтинг и ограничения

Сайт не распространяет и не хранит электронные версии произведений, а лишь предоставляет доступ к создаваемому пользователями каталогу ссылок на торрент-файлы, которые содержат только списки хеш-сумм

[Профиль] [ЛС]
Показать сообщения:    
Ответить на тему

Текущее время: Сегодня 23:45

Часовой пояс: GMT + 4



Вы не можете начинать темы
Вы не можете отвечать на сообщения
Вы не можете редактировать свои сообщения
Вы не можете удалять свои сообщения
Вы не можете голосовать в опросах
Вы не можете прикреплять файлы к сообщениям
Вы не можете скачивать файлы