Звено (Роман Романовский) [2012, Триллер, DVDRip]

Ответить на тему
 
Автор Сообщение

user ®

Стаж: 7 лет 7 месяцев

Сообщений: 20008

Пост Пост: #1 от 03-Апр-2014 10:35

[Цитировать]

Звено
Жанр: Триллер
Год выпуска: 2012
Продолжительность: 02:02:03
Режиссёр: Роман Романовский
В ролях: Кристина Казинская, Иван Оранский, Алексей Лунёв, Евгений Филичкин, Владимир Смирнов, Владимир Фролов, Валентин Голубенко, Вероника Амирханова, Виктор Полторацкий
Описание: Молодой ученый, пытаясь избежать срочной службы в химических войсках, выбирает альтернативную службу воспитателем в подмосковном детском доме, расположившемся в древней усадьбе. По странному стечению обстоятельств, несколько его предшественников на этой должности, странным образом погибали. Вскоре молодой человек понимает, что он попал в это место не случайно и, если он не вырвется из ловушки, в которую его заманили обстоятельства, то он станет следующим звеном в выстроенной кем-то цепи.
Сэмпл: http://multi-up.com/962281
Качество видео: DVDRip
Формат видео: AVI
Видео: XviD, 720 Кбит/с, 620x348, 25 fps
Аудио: MP3, 120 Kbps, 44.1 KHz, 2 ch

MediaInfo

Format : AVI
Format/Info : Audio Video Interleave
File size : 744 MiB
Duration : 2h 2mn
Overall bit rate : 853 Kbps
Writing application : VirtualDubMod 1.5.10.2 (build 2542/release)
Writing library : VirtualDubMod build 2542/release
Video
ID : 0
Format : MPEG-4 Visual
Format profile : Advanced Simple@L5
Format settings, BVOP : Yes
Format settings, QPel : No
Format settings, GMC : No warppoints
Format settings, Matrix : Default (H.263)
Muxing mode : Packed bitstream
Codec ID : XVID
Codec ID/Hint : XviD
Duration : 2h 2mn
Bit rate : 720 Kbps
Width : 620 pixels
Height : 348 pixels
Display aspect ratio : 16:9
Frame rate : 25.000 fps
Color space : YUV
Chroma subsampling : 4:2:0
Bit depth : 8 bits
Scan type : Progressive
Bits/(Pixel*Frame) : 0.133
Stream size : 629 MiB (84%)
Writing library : XviD 64
Audio
ID : 1
Format : MPEG Audio
Format version : Version 1
Format profile : Layer 3
Mode : Joint stereo
Mode extension : MS Stereo
Codec ID : 55
Codec ID/Hint : MP3
Duration : 2h 2mn
Bit rate mode : Variable
Bit rate : 120 Kbps
Minimum bit rate : 112 Kbps
Channel(s) : 2 channels
Sampling rate : 44.1 KHz
Stream size : 105 MiB (14%)
Alignment : Aligned on interleaves
Interleave, duration : 26 ms (0.65 video frame)
Interleave, preload duration : 545 ms
Writing library : LAME3.99r
Encoding settings : -m j -V 4 -q 0 -lowpass 17.5 --vbr-mt -b 112

Скриншот c названием фильма

Скриншоты


Скриншоты заливаются.
Скачать

Скачать торрент!

Как скачивать? · Что такое торрент? · Рейтинг и ограничения

Сайт не распространяет и не хранит электронные версии произведений, а лишь предоставляет доступ к создаваемому пользователями каталогу ссылок на торрент-файлы, которые содержат только списки хеш-сумм

[Профиль] [ЛС]
Показать сообщения:    
Ответить на тему

Текущее время: Сегодня 07:56

Часовой пояс: GMT + 4



Вы не можете начинать темы
Вы не можете отвечать на сообщения
Вы не можете редактировать свои сообщения
Вы не можете удалять свои сообщения
Вы не можете голосовать в опросах
Вы не можете прикреплять файлы к сообщениям
Вы не можете скачивать файлы