Перекрестный огонь / Bad Country (Крис Бринкер / Chris Brinker) [2014, США, боевик, триллер, драма, криминал, детектив, HDRip] MVO

Ответить на тему
 
Автор Сообщение

user ®

Стаж: 7 лет 7 месяцев

Сообщений: 20008

Пост Пост: #1 от 02-Апр-2014 20:40

[Цитировать]

Перекрестный огонь / Bad Country
Страна: США
Жанр: боевик, триллер, драма, криминал, детектив
Год выпуска: 2014
Продолжительность: 01:44:22
Перевод: Профессиональный (многоголосый закадровый) | Лицензия
Cубтитры: нет
Оригинальная аудиодорожка: нет
Режиссер: Крис Бринкер / Chris Brinker
В ролях: Мэтт Диллон, Уиллем Дефо, Нил МакДонаф, Эми Смарт, Крис Маркетт, Дон Йессо, Кевин Чэпмен, Билл Дьюк, Том Беренджер, Кристофер Денэм
Описание: Фильм снят по реальным событиям. Расследование детектива Бада Картера приводит к аресту Джесси Вейланда, наемного убийцы из преступного синдиката. Вейланд осознает, что попав в тюрьму, он потеряет свою семью, и решает довериться Картеру, став его информатором.

Сэмпл: http://www.sendspace.com/file/9033x1
Качество видео: HDRip
Формат видео: AVI
Видео: XviD 73, 624x352 (16:9), 23.976 fps, 863 Kbps
Аудио: MP3, 48.0 kHz, 128 Kbps, 2 ch, CBR
Релиз от: Scarabey

MediaInfo

General
Complete name                            : Bad.Country.2014.P.HDRip.avi
Format                                   : AVI
Format/Info                              : Audio Video Interleave
File size                                : 747 MiB
Duration                                 : 1h 44mn
Overall bit rate                         : 1 000 Kbps
Writing application                      : VirtualDubMod 1.5.10.3 | www.virtualdub-fr.org || (build 2550/release)
Writing library                          : VirtualDubMod build 2550/release
Video
ID                                       : 0
Format                                   : MPEG-4 Visual
Format profile                           : Advanced Simple@L5
Format settings, BVOP                    : 1
Format settings, QPel                    : No
Format settings, GMC                     : No warppoints
Format settings, Matrix                  : Custom
Codec ID                                 : XVID
Codec ID/Hint                            : XviD
Duration                                 : 1h 44mn
Bit rate                                 : 863 Kbps
Width                                    : 624 pixels
Height                                   : 352 pixels
Display aspect ratio                     : 16:9
Frame rate                               : 23.976 fps
Color space                              : YUV
Chroma subsampling                       : 4:2:0
Bit depth                                : 8 bits
Scan type                                : Progressive
Compression mode                         : Lossy
Bits/(Pixel*Frame)                       : 0.164
Stream size                              : 644 MiB (86%)
Writing library                          : XviD 73
Audio
ID                                       : 1
Format                                   : MPEG Audio
Format version                           : Version 1
Format profile                           : Layer 3
Codec ID                                 : 55
Codec ID/Hint                            : MP3
Duration                                 : 1h 44mn
Bit rate mode                            : Constant
Bit rate                                 : 128 Kbps
Channel(s)                               : 2 channels
Sampling rate                            : 48.0 KHz
Compression mode                         : Lossy
Stream size                              : 95.6 MiB (13%)
Alignment                                : Aligned on interleaves
Interleave, duration                     : 42 ms (1.00 video frame)
Interleave, preload duration             : 504 ms
Writing library                          : LAME3.99r
Encoding settings                        : -m s -V 4 -q 2 -lowpass 17 -b 128

Скриншот c названием фильма

Скриншоты

Скачать

Скачать торрент!

Как скачивать? · Что такое торрент? · Рейтинг и ограничения

Сайт не распространяет и не хранит электронные версии произведений, а лишь предоставляет доступ к создаваемому пользователями каталогу ссылок на торрент-файлы, которые содержат только списки хеш-сумм

[Профиль] [ЛС]
Показать сообщения:    
Ответить на тему

Текущее время: Сегодня 22:14

Часовой пояс: GMT + 4



Вы не можете начинать темы
Вы не можете отвечать на сообщения
Вы не можете редактировать свои сообщения
Вы не можете удалять свои сообщения
Вы не можете голосовать в опросах
Вы не можете прикреплять файлы к сообщениям
Вы не можете скачивать файлы