Вашингтонское такси / D.C. Cab (Джоэл Шумахер / Joel Schumacher) [1983, США, комедия, боевик, HDTV 1080i] DVO (НТВ) + 2x Sub (Rus, Eng) + Original Eng

Ответить на тему
 
Автор Сообщение

user ®

Стаж: 7 лет 7 месяцев

Сообщений: 20008

Пост Пост: #1 от 01-Апр-2014 05:00

[Цитировать]

Вашингтонское такси / D.C. Cab
Страна: США
Жанр: комедия, боевик
Год выпуска: 1983
Продолжительность: 01:39:07
Перевод: Профессиональный (двухголосый закадровый) НТВ
Cубтитры: русские, английские [SDH]
Оригинальная аудиодорожка: английский
-
Режиссер: Джоэл Шумахер / Joel Schumacher
В ролях: Макс Гэйл, Адам Болдуин, Мистер Ти, Чарли Барнетт, Гэри Бьюзи, Глория Гиффорд, Марша Уорфилд, Билл Маар, Девейн Джесси, Пол Родригез
-
Описание: Альберт Хокенберри приезжает в город с мечтой открыть собственное дело. Но это совсем непросто, и Альберт устраивается стажером в небольшой таксопарк, принадлежащий Гарольду. Компания находится на грани банкротства и хозяин готов на все, чтобы остаться на плаву. Он просит таксистов проявить творческую жилку и сделать все возможное для спасения фирмы. И тут случается непредвиденное: Альберта похищают…

Тип релиза: HDTV 1080i
Контейнер: MKV
Видео: MPEG-2 / NTSC 16:9 / 1920x1080 (1,85:1) / 9539 kbps / 29,970 fps / 0.150 bit/pixel / Main@High
Аудио 1: Russian / AC3 / 48 kHz / 2 Ch / 192 kbps / 16 bit / DVO
Аудио 2: English / AC3 / 48 kHz / 2 Ch / 384 kbps / 16 bit / Original
Формат субтитров: softsub (SRT)

MediaInfo

Общее
Уникальный идентификатор : 172861679322949091960601205607097293022 (0x820BF2CD4276117084D5E18DB6E1D8DE)
Полное имя : F:\D.C. Cab.1983.HDTV.1080i.mkv
Формат : Matroska
Версия формата : Version 4 / Version 2
Размер файла : 7,00 Гбайт
Продолжительность : 1 ч. 39 м.
Режим общего битрейта : Переменный
Общий поток : 10,1 Мбит/сек
Дата кодирования : UTC 2014-03-30 10:59:50
Программа кодирования : mkvmerge v6.8.0 ('Theme for Great Cities') 64bit built on Mar 2 2014 21:34:26
Библиотека кодирования : libebml v1.3.0 + libmatroska v1.4.1
Видео
Идентификатор : 1
Формат : MPEG Video
Версия формата : Version 2
Профиль формата : Main@High
Параметр BVOP формата : Нет
Параметр матрицы формата : По умолчанию
Идентификатор кодека : V_MPEG2
Идентификатор кодека/Информация : MPEG 1 or 2 Video
Продолжительность : 1 ч. 39 м.
Вид битрейта : Переменный
Битрейт : 9338 Кбит/сек
Максимальный битрейт : 18,0 Мбит/сек
Ширина : 1920 пикселей
Высота : 1080 пикселей
Соотношение сторон : 16:9
Режим частоты кадров : Постоянный
Частота кадров : 29,970 кадров/сек
Цветовое пространство : YUV
Субдискретизация насыщенности : 4:2:0
Битовая глубина : 8 бит
Тип развёртки : Чересстрочная
Порядок развёртки : Нижнее поле первое
Метод сжатия : С потерями
Бит/(Пиксели*Кадры) : 0.150
Временной код первого кадра : 00:00:00;00
Оригинал временного кода : Group of pictures header
Размер потока : 6,47 Гбайт (92%)
Язык : English
Default : Да
Forced : Нет
Аудио #1
Идентификатор : 2
Формат : AC-3
Формат/Информация : Audio Coding 3
Расширение режима : CM (complete main)
Параметр Endianness формата : Big
Идентификатор кодека : A_AC3
Продолжительность : 1 ч. 39 м.
Вид битрейта : Постоянный
Битрейт : 192 Кбит/сек
Каналы : 2 канала
Расположение каналов : Front: L R
Частота : 48,0 КГц
Битовая глубина : 16 бит
Метод сжатия : С потерями
Размер потока : 136 Мбайт (2%)
Заголовок : DVO
Язык : Russian
Default : Да
Forced : Нет
Аудио #2
Идентификатор : 3
Формат : AC-3
Формат/Информация : Audio Coding 3
Расширение режима : CM (complete main)
Параметр Endianness формата : Big
Идентификатор кодека : A_AC3
Продолжительность : 1 ч. 39 м.
Вид битрейта : Постоянный
Битрейт : 384 Кбит/сек
Каналы : 2 канала
Расположение каналов : Front: L R
Частота : 48,0 КГц
Битовая глубина : 16 бит
Метод сжатия : С потерями
Размер потока : 272 Мбайт (4%)
Заголовок : Original
Язык : English
Default : Нет
Forced : Нет
Текст #1
Идентификатор : 4
Формат : UTF-8
Идентификатор кодека : S_TEXT/UTF8
Идентификатор кодека/Информация : UTF-8 Plain Text
Заголовок : RUS
Язык : Russian
Default : Нет
Forced : Нет
Текст #2
Идентификатор : 5
Формат : UTF-8
Идентификатор кодека : S_TEXT/UTF8
Идентификатор кодека/Информация : UTF-8 Plain Text
Заголовок : Original [SDH]
Язык : English
Default : Нет
Forced : Нет

Скриншоты

Скачать

Скачать торрент!

Как скачивать? · Что такое торрент? · Рейтинг и ограничения

Сайт не распространяет и не хранит электронные версии произведений, а лишь предоставляет доступ к создаваемому пользователями каталогу ссылок на торрент-файлы, которые содержат только списки хеш-сумм

[Профиль] [ЛС]
Показать сообщения:    
Ответить на тему

Текущее время: Сегодня 22:24

Часовой пояс: GMT + 4



Вы не можете начинать темы
Вы не можете отвечать на сообщения
Вы не можете редактировать свои сообщения
Вы не можете удалять свои сообщения
Вы не можете голосовать в опросах
Вы не можете прикреплять файлы к сообщениям
Вы не можете скачивать файлы