Без чувств / Senseless (Пенелопа Сфирис / Penelope Spheeris) [1998, США, комедия, BDRip 1080p] DVO (R5) + MVO (СТС) + Ukr + AVO (Санаев) + Sub Rus, Eng + Original Eng

Ответить на тему
 
Автор Сообщение

user ®

Стаж: 7 лет 7 месяцев

Сообщений: 20008

Пост Пост: #1 от 01-Апр-2014 05:00

[Цитировать]

Без чувств / Senseless
Страна: США
Студия: Dimension Films, Miramax Films
Жанр: комедия
Год выпуска: 1998
Продолжительность: 01:33:21
Перевод: Профессиональный (двухголосый закадровый) R5
Перевод 2: Профессиональный (многоголосый закадровый) СТС
Перевод 3: Авторский (одноголосый закадровый) П.Санаев
Cубтитры: русские, английские
Оригинальная аудиодорожка: английский
Режиссер: Пенелопа Сфирис / Penelope Spheeris
В ролях: Марлон Уайанс, Дэвид Спейд, Мэттью Лиллард, Тамара Тейлор, Брэд Дуриф, Рип Торн, Эстер Скотт, Дебра Джо Рапп, Марк Кристофер Лоуренс, Джон Ингл
Описание: Бедный студент Дэррил Уизерспун трудится на четырех работах, но денег на оплату счетов всё равно не хватает. В надежде добыть еще немного средств Дэррил соглашается принять участие в сомнительном медицинском эксперименте. Молодой человек становится чуть ли не супергероем, но неожиданно о себе дают знать странные побочные эффекты...

Sample
Тип релиза: BDRip 1080p спасибо 0ptimus за рип и Diablo (HDClub) за исходный ремукс
Контейнер: MKV
Видео: MPEG4 AVC Video, H264, 16:9, 1920x1080, 23.976 fps, 14438 kbps
Аудио: Russian (Dolby AC3, 6 ch, 384 kbps, 16 bits, 48.0 KHz) - R5
Аудио 2: Russian (Dolby AC3, 2 ch, 192 kbps, 16 bits, 48.0 KHz) - СТС
Аудио 3: Russian (Dolby AC3, 2 ch, 192 kbps, 16 bits, 48.0 KHz) - П.Санаев
Аудио 4: Ukrainian (Dolby AC3, 2 ch, 192 kbps, 16 bits, 48.0 KHz) - MVO
Аудио 4: English (Dolby AC3, 6 ch, 384 kbps, 16 bits, 48.0 KHz) - оригинал с DVD R5
Формат субтитров: softsub (SRT)

MediaInfo

Общее
Уникальный идентификатор : 187784886695442862055722971265445514677 (0x8D460DBB494952D1A5944310FAEDCDB5)
Полное имя : E:\1\Bez.chuvstv.1998.x264.BDRip.(1080p).mkv
Формат : Matroska
Версия формата : Version 4 / Version 2
Размер файла : 10,1 Гбайт
Продолжительность : 1 ч. 33 м.
Общий поток : 15,4 Мбит/сек
Название фильма : Без чувств | Senseless [1998] -=BDRip (1080p) by 0ptimus=-
Дата кодирования : UTC 2014-03-30 15:13:53
Программа кодирования : mkvmerge v6.1.0 ('Old Devil') built on Mar 2 2013 14:32:37
Библиотека кодирования : libebml v1.3.0 + libmatroska v1.4.0
Видео
Идентификатор : 1
Формат : AVC
Формат/Информация : Advanced Video Codec
Профиль формата : High@L4.1
Параметр CABAC формата : Да
Параметр ReFrames формата : 4 кадра
Идентификатор кодека : V_MPEG4/ISO/AVC
Продолжительность : 1 ч. 33 м.
Битрейт : 14,1 Мбит/сек
Ширина : 1920 пикселей
Высота : 1080 пикселей
Соотношение сторон : 16:9
Режим частоты кадров : Постоянный
Частота кадров : 23,976 кадра/сек
Цветовое пространство : YUV
Субдискретизация насыщенности : 4:2:0
Битовая глубина : 8 бит
Тип развёртки : Прогрессивная
Бит/(Пиксели*Кадры) : 0.283
Размер потока : 8,98 Гбайт (89%)
Заголовок : Rip by 0ptimus
Библиотека кодирования : x264 core 132 r2310 76a5c3a
Настройки программы : cabac=1 / ref=4 / deblock=1:-3:-3 / analyse=0x3:0x113 / me=umh / subme=11 / psy=1 / psy_rd=1.00:0.20 / mixed_ref=1 / me_range=32 / chroma_me=1 / trellis=2 / 8x8dct=1 / cqm=0 / deadzone=21,11 / fast_pskip=0 / chroma_qp_offset=-3 / threads=4 / lookahead_threads=1 / sliced_threads=0 / nr=0 / decimate=0 / interlaced=0 / bluray_compat=0 / constrained_intra=0 / bframes=9 / b_pyramid=2 / b_adapt=2 / b_bias=0 / direct=3 / weightb=1 / open_gop=0 / weightp=2 / keyint=240 / keyint_min=23 / scenecut=40 / intra_refresh=0 / rc_lookahead=40 / rc=2pass / mbtree=0 / bitrate=14076 / ratetol=1.0 / qcomp=0.60 / qpmin=0 / qpmax=69 / qpstep=4 / cplxblur=20.0 / qblur=0.5 / vbv_maxrate=50000 / vbv_bufsize=62500 / nal_hrd=none / ip_ratio=1.40 / pb_ratio=1.30 / aq=1:1.00
Язык : English
Default : Да
Forced : Да
Аудио #1
Идентификатор : 2
Формат : AC-3
Формат/Информация : Audio Coding 3
Расширение режима : CM (complete main)
Параметр Endianness формата : Big
Идентификатор кодека : A_AC3
Продолжительность : 1 ч. 33 м.
Вид битрейта : Постоянный
Битрейт : 384 Кбит/сек
Каналы : 6 каналов
Расположение каналов : Front: L C R, Side: L R, LFE
Частота : 48,0 КГц
Битовая глубина : 16 бит
Метод сжатия : С потерями
Размер потока : 256 Мбайт (2%)
Заголовок : Двухголосый закадровый [R5] AC3 5.1 384 kbps
Язык : Russian
Default : Да
Forced : Да
Аудио #2
Идентификатор : 3
Формат : AC-3
Формат/Информация : Audio Coding 3
Расширение режима : CM (complete main)
Параметр Endianness формата : Big
Идентификатор кодека : A_AC3
Продолжительность : 1 ч. 33 м.
Вид битрейта : Постоянный
Битрейт : 192 Кбит/сек
Каналы : 2 канала
Расположение каналов : Front: L R
Частота : 48,0 КГц
Битовая глубина : 16 бит
Метод сжатия : С потерями
Размер потока : 128 Мбайт (1%)
Заголовок : Многоголосый закадровый [СТС] AC3 2.0 192 kbps
Язык : Russian
Default : Нет
Forced : Нет
Аудио #3
Идентификатор : 4
Формат : AC-3
Формат/Информация : Audio Coding 3
Расширение режима : CM (complete main)
Параметр Endianness формата : Big
Идентификатор кодека : A_AC3
Продолжительность : 1 ч. 33 м.
Вид битрейта : Постоянный
Битрейт : 192 Кбит/сек
Каналы : 2 канала
Расположение каналов : Front: L R
Частота : 48,0 КГц
Битовая глубина : 16 бит
Метод сжатия : С потерями
Размер потока : 128 Мбайт (1%)
Заголовок : Авторский [Павел Санаев] AC3 2.0 192 kbps
Язык : Russian
Default : Нет
Forced : Нет
Аудио #4
Идентификатор : 5
Формат : AC-3
Формат/Информация : Audio Coding 3
Расширение режима : CM (complete main)
Параметр Endianness формата : Big
Идентификатор кодека : A_AC3
Продолжительность : 1 ч. 33 м.
Вид битрейта : Постоянный
Битрейт : 192 Кбит/сек
Каналы : 2 канала
Расположение каналов : Front: L R
Частота : 48,0 КГц
Битовая глубина : 16 бит
Метод сжатия : С потерями
Размер потока : 128 Мбайт (1%)
Заголовок : Многоголосый закадровый
Язык : Ukrainian
Default : Нет
Forced : Нет
Аудио #5
Идентификатор : 6
Формат : AC-3
Формат/Информация : Audio Coding 3
Расширение режима : CM (complete main)
Параметр Endianness формата : Big
Идентификатор кодека : A_AC3
Продолжительность : 1 ч. 33 м.
Вид битрейта : Постоянный
Битрейт : 384 Кбит/сек
Каналы : 6 каналов
Расположение каналов : Front: L C R, Side: L R, LFE
Частота : 48,0 КГц
Битовая глубина : 16 бит
Метод сжатия : С потерями
Размер потока : 256 Мбайт (2%)
Заголовок : [from DVD] AC3 5.1 384 kbps
Язык : English
Default : Нет
Forced : Нет
Текст #1
Идентификатор : 7
Формат : UTF-8
Идентификатор кодека : S_TEXT/UTF8
Идентификатор кодека/Информация : UTF-8 Plain Text
Язык : Russian
Default : Нет
Forced : Нет
Текст #2
Идентификатор : 8
Формат : UTF-8
Идентификатор кодека : S_TEXT/UTF8
Идентификатор кодека/Информация : UTF-8 Plain Text
Язык : English
Default : Нет
Forced : Нет
Меню
00:00:00.000 : :Chapter 01
00:07:17.103 : :Chapter 02
00:15:28.677 : :Chapter 03
00:23:51.555 : :Chapter 04
00:31:14.205 : :Chapter 05
00:39:52.640 : :Chapter 06
00:48:58.060 : :Chapter 07
00:56:55.078 : :Chapter 08
01:03:44.570 : :Chapter 09
01:12:19.667 : :Chapter 10
01:19:29.222 : :Chapter 11
01:27:13.895 : :Chapter 12
01:33:21.637 : :Chapter 13

Скриншоты

Скачать

Скачать торрент!

Как скачивать? · Что такое торрент? · Рейтинг и ограничения

Сайт не распространяет и не хранит электронные версии произведений, а лишь предоставляет доступ к создаваемому пользователями каталогу ссылок на торрент-файлы, которые содержат только списки хеш-сумм

[Профиль] [ЛС]
Показать сообщения:    
Ответить на тему

Текущее время: Сегодня 10:00

Часовой пояс: GMT + 4



Вы не можете начинать темы
Вы не можете отвечать на сообщения
Вы не можете редактировать свои сообщения
Вы не можете удалять свои сообщения
Вы не можете голосовать в опросах
Вы не можете прикреплять файлы к сообщениям
Вы не можете скачивать файлы