Король комедии / The King of Comedy (Мартин Скорсезе / Martin Scorsese) [1982, США, драма, комедия, BDRemux 1080p] DVO + AVO (Горчаков) + Sub Rus, Eng + Original Eng

Ответить на тему
 
Автор Сообщение

user ®

Стаж: 7 лет 7 месяцев

Сообщений: 20008

Пост Пост: #1 от 01-Апр-2014 05:00

[Цитировать]

Король комедии / The King of Comedy
Страна: США
Жанр: драма, комедия
Год выпуска: 1982
Продолжительность: 01:48:59
Перевод 1: Профессиональный (двухголосый закадровый)
Перевод 2: Авторский (одноголосый закадровый) ВАСИЛИЙ ГОРЧАКОВ
Cубтитры: русские, английские
Оригинальная аудиодорожка: английский
Режиссер: Мартин Скорсезе / Martin Scorsese
В ролях: Роберт Де Ниро, Джерри Льюис, Дайэнн Эбботт, Сандра Бернхард, Шелли Хэк, Эд Херлихи, Лу Браун, Лоретта Туппер, Питер Потульски, Винни Гонзалес, Лайза Миннелли
Описание: Неутомимый неудачник Руперт Папкин (Роберт Де Ниро) уверен, что он призван быть гениальным юмористом. Вопреки полному отсутствию таланта, он точно знает, что его ждет немеркнущая слава блистательного шоумена. Нужно лишь один разок выступить перед зрителями - и он станет звездой. Решив начать свою карьеру с самого верха, Руперт осаждает популярнейшего ведущего «Вечернего шоу» Джерри Лэнгфорда (Джерри Льюис), чтобы тот позволил ему выступить в своей передаче. Но легендарный комик не желает иметь ничего общего с этим самоуверенным бездарем. Получая отказ за отказом, Руперт, в конце концов, решается на отчаянный шаг, не сомневаясь, что теперь-то весь мир узнает о нем…
Доп. информация: Сохранены оригинальные чаптеры как на Blu-ray.
Сэмпл: http://sendfile.su/961635
Тип релиза: BDRemux 1080p
Контейнер: MKV
Видео: AVC 1920 x 1080 (16:9) 23,976 fps, 27870 kbps
Аудио 1: Russian 48 kHz, AC3 Dolby Digital, 2/0 (L,R) ch, ~192 kbps (двухголосый закадровый)
Аудио 2: Russian 48 kHz, AC3 Dolby Digital, 2/0 (L,R) ch, ~192 kbps ВАСИЛИЙ ГОРЧАКОВ
Аудио 3: English 48 kHz, DTS-HD MA, 1/0 ch, ~1090 kbps (DTS Core: 1.0 / 48 kHz / 768 kbps / 24-bit)

MediaInfo

Общее
Уникальный идентификатор : 197392540340926078457447022755144425639 (0x94806BA0EA5D75B886AB7B02F32A60A7)
Полное имя : D:\The King of Comedy\Korol.komedii.1892.BDRemux.1080p-MediaClub.mkv
Формат : Matroska
Версия формата : Version 4 / Version 2
Размер файла : 22,3 Гбайт
Продолжительность : 1 ч. 48 м.
Режим общего битрейта : Переменный
Общий поток : 29,3 Мбит/сек
Название фильма : MediaClub
Дата кодирования : UTC 2014-03-30 14:00:07
Программа кодирования : mkvmerge v6.8.0 ('Theme for Great Cities') 64bit built on Mar 2 2014 21:
Библиотека кодирования : libebml v1.3.0 + libmatroska v1.4.1
Видео
Идентификатор : 1
Формат : AVC
Формат/Информация : Advanced Video Codec
Профиль формата : High@L4.1
Параметр CABAC формата : Да
Параметр ReFrames формата : 2 кадра
Идентификатор кодека : V_MPEG4/ISO/AVC
Продолжительность : 1 ч. 48 м.
Вид битрейта : Переменный
Ширина : 1920 пикселей
Высота : 1080 пикселей
Соотношение сторон : 16:9
Режим частоты кадров : Постоянный
Частота кадров : 23,976 кадра/сек
Цветовое пространство : YUV
Субдискретизация насыщенности : 4:2:0
Битовая глубина : 8 бит
Тип развёртки : Прогрессивная
Заголовок : MediaClub
Default : Да
Forced : Да
Аудио #1
Идентификатор : 2
Формат : AC-3
Формат/Информация : Audio Coding 3
Расширение режима : CM (complete main)
Параметр Endianness формата : Big
Идентификатор кодека : A_AC3
Продолжительность : 1 ч. 48 м.
Вид битрейта : Постоянный
Битрейт : 192 Кбит/сек
Каналы : 2 канала
Расположение каналов : Front: L R
Частота : 48,0 КГц
Битовая глубина : 16 бит
Метод сжатия : С потерями
Размер потока : 150 Мбайт (1%)
Заголовок : DVO
Язык : Russian
Default : Да
Forced : Да
Аудио #2
Идентификатор : 3
Формат : AC-3
Формат/Информация : Audio Coding 3
Расширение режима : CM (complete main)
Параметр Endianness формата : Big
Идентификатор кодека : A_AC3
Продолжительность : 1 ч. 48 м.
Вид битрейта : Постоянный
Битрейт : 192 Кбит/сек
Каналы : 2 канала
Расположение каналов : Front: L R
Частота : 48,0 КГц
Битовая глубина : 16 бит
Метод сжатия : С потерями
Размер потока : 150 Мбайт (1%)
Заголовок : Горчаков
Язык : Russian
Default : Нет
Forced : Нет
Аудио #3
Идентификатор : 4
Формат : DTS
Формат/Информация : Digital Theater Systems
Профиль формата : MA / Core
Режим : 16
Параметр Endianness формата : Big
Идентификатор кодека : A_DTS
Продолжительность : 1 ч. 48 м.
Вид битрейта : Переменный
Битрейт : Неизвестно / 768 Кбит/сек
Каналы : 1 канал
Расположение каналов : Front: C
Частота : 48,0 КГц
Битовая глубина : 24 бит
Метод сжатия : Без потерь / Lossy
Язык : English
Default : Нет
Forced : Нет
Текст #1
Идентификатор : 5
Формат : UTF-8
Идентификатор кодека : S_TEXT/UTF8
Идентификатор кодека/Информация : UTF-8 Plain Text
Язык : Russian
Default : Нет
Forced : Нет
Текст #2
Идентификатор : 6
Формат : UTF-8
Идентификатор кодека : S_TEXT/UTF8
Идентификатор кодека/Информация : UTF-8 Plain Text
Язык : English
Default : Нет
Forced : Нет
Меню
00:00:00.000 : en:Chapter 01
00:03:14.319 : en:Chapter 03
00:05:47.930 : en:Chapter 05
00:11:06.624 : en:Chapter 07
00:13:37.191 : en:Chapter 09
00:14:57.938 : en:Chapter 11
00:23:38.708 : en:Chapter 13
00:29:40.737 : en:Chapter 15
00:32:05.590 : en:Chapter 17
00:36:30.021 : en:Chapter 19
00:38:20.172 : en:Chapter 21
00:41:12.678 : en:Chapter 23
00:44:44.139 : en:Chapter 25
00:52:31.314 : en:Chapter 27
01:01:18.091 : en:Chapter 29
01:05:16.037 : en:Chapter 31
01:09:30.624 : en:Chapter 33
01:14:34.928 : en:Chapter 35
01:17:00.991 : en:Chapter 37
01:18:32.040 : en:Chapter 39
01:21:53.742 : en:Chapter 41
01:24:58.218 : en:Chapter 43
01:26:29.267 : en:Chapter 45
01:30:21.999 : en:Chapter 47
01:32:23.287 : en:Chapter 49
01:35:06.283 : en:Chapter 51
01:42:39.987 : en:Chapter 53
01:45:19.146 : en:Chapter 55

Скриншоты

Скачать

Скачать торрент!

Как скачивать? · Что такое торрент? · Рейтинг и ограничения

Сайт не распространяет и не хранит электронные версии произведений, а лишь предоставляет доступ к создаваемому пользователями каталогу ссылок на торрент-файлы, которые содержат только списки хеш-сумм

[Профиль] [ЛС]
Показать сообщения:    
Ответить на тему

Текущее время: Сегодня 15:33

Часовой пояс: GMT + 4



Вы не можете начинать темы
Вы не можете отвечать на сообщения
Вы не можете редактировать свои сообщения
Вы не можете удалять свои сообщения
Вы не можете голосовать в опросах
Вы не можете прикреплять файлы к сообщениям
Вы не можете скачивать файлы