Ной / Noah (Даррен Аронофски / Darren Aronofsky) [2014, США, Приключения, Драма, CamRip] Dub

Ответить на тему
 
Автор Сообщение

user ®

Стаж: 7 лет 7 месяцев

Сообщений: 20008

Пост Пост: #1 от 01-Апр-2014 05:00

[Цитировать]

Ной / Noah«Конец — это только начало» Страна: СШАЖанр: Приключения, ДрамаГод выпуска: 2014Продолжительность: 02:02:01Перевод: Профессиональный (дублированный)Cубтитры: нетРежиссер: Даррен Аронофски / Darren AronofskyВ ролях: Рассел Кроу, Дженнифер Коннелли, Рэй Уинстон, Эмма Уотсон, Логан Лерман, Энтони Хопкинс, Кевин Дюран, Бэрри Слоун, Мэдисон Девенпорт, Марк Марголис и др.
Описание: В мире, разрушенном человеческим грехом, Ной получает божественную миссию: построить ковчег, чтобы спасти свою семью и пару животных каждого вида от предстоящего потопа.
Доп. информация:
«Ной» (англ. Noah) — библейский эпический фильм режиссёра Даррена Аронофски по сценарию Аронофски и Эри Хэндела. Фильм рассказывает историю библейского персонажа Ноя, роль которого исполняет Рассел Кроу. Премьера в США состоялась 26 марта 2014 года в Нью-Йорке, в России — 27 марта 2014.Один из самых ожидаемых фильмов этого года Сэмпл: http://multi-up.com/963609
Качество видео: CamRip
Формат видео: AVI
Видео: XVID, 720x336 (2,143), 23,976 кадра/сек, 1469 Кбит/сек
Аудио: MP3, 44,1 КГц, 128 Кбит/сек (2 канала)

MediaInfo

Формат : AVI
Формат/Информация : Audio Video Interleave
Размер файла : 1,37 Гбайт
Продолжительность : 2 ч. 2 м.
Общий поток : 1606 Кбит/сек
Программа кодирования : VirtualDubMod 1.5.10.2 (build 2540/release)
Библиотека кодирования : VirtualDubMod build 2540/release
Видео
Идентификатор : 0
Формат : MPEG-4 Visual
Профиль формата : Advanced Simple@L5
Параметр BVOP формата : 2
Параметр QPel формата : Нет
Параметр GMC формата : Без точки перехода
Параметр матрицы формата : Default (MPEG)
Идентификатор кодека : XVID
Идентификатор кодека/Подсказка : XviD
Продолжительность : 2 ч. 2 м.
Битрейт : 1469 Кбит/сек
Ширина : 720 пикселей
Высота : 336 пикселей
Соотношение сторон : 2,143
Частота кадров : 23,976 кадра/сек
Цветовое пространство : YUV
Субдискретизация насыщенности : 4:2:0
Битовая глубина : 8 бит
Тип развёртки : Прогрессивная
Метод сжатия : С потерями
Бит/(Пиксели*Кадры) : 0.253
Размер потока : 1,25 Гбайт (91%)
Библиотека кодирования : XviD 73
Аудио
Идентификатор : 1
Формат : MPEG Audio
Версия формата : Version 1
Профиль формата : Layer 3
Идентификатор кодека : 55
Идентификатор кодека/Подсказка : MP3
Продолжительность : 2 ч. 2 м.
Вид битрейта : Постоянный
Битрейт : 128 Кбит/сек
Каналы : 2 канала
Частота : 44,1 КГц
Метод сжатия : С потерями
Размер потока : 112 Мбайт (8%)
Выравнивание : Разделение по промежуткам
Продолжительность промежутка : 42 мс. (1,00 видеокадр)
Время предзагрузки промежутка : 500 мс.

Скриншот c названием фильма

Скриншоты

Интересные Факты

• Аронофски предлагал роль Ноя Кристиану Бэйлу и Майклу Фассбендеру, но они оба отказались
• Джулианна Мур рассматривалась на роль Ноемы.
• Дакота Фэннинг первоначально должна была играть Илу, но она ушла из фильма из-за занятости на других проектах.
• Лиам Нисон, Лев Шрайбер и Вэл Килмер рассматривались на роль Тубал-Каина.
• Рассел Кроу и Дженнифер Коннели уже играли мужа и жену в фильме «Игры разума»
• Рассел Кроу пытался с помощью твиттера уговорить папу римского Франциска посмотреть «Ноя», называя картину мощной, завораживающей и вызывающей резонанс. В итоге Франциск пригласил Рассела Кроу в Ватикан на короткую аудиенцию, в ходе которой благословил фильм «Ной». Как заявил Кроу, с учетом многочисленных споров вокруг фильма приглашение в Ватикан было большой честью.
Скачать

Скачать торрент!

Как скачивать? · Что такое торрент? · Рейтинг и ограничения

Сайт не распространяет и не хранит электронные версии произведений, а лишь предоставляет доступ к создаваемому пользователями каталогу ссылок на торрент-файлы, которые содержат только списки хеш-сумм

[Профиль] [ЛС]
Показать сообщения:    
Ответить на тему

Текущее время: Сегодня 14:47

Часовой пояс: GMT + 4



Вы не можете начинать темы
Вы не можете отвечать на сообщения
Вы не можете редактировать свои сообщения
Вы не можете удалять свои сообщения
Вы не можете голосовать в опросах
Вы не можете прикреплять файлы к сообщениям
Вы не можете скачивать файлы