Китайскiй сервизъ / Китайский сервиз (Виталий Москаленко) [1999, Комедия, DVDRip-AVC]

Ответить на тему
 
Автор Сообщение

user ®

Стаж: 7 лет 7 месяцев

Сообщений: 20008

Пост Пост: #1 от 31-Мар-2014 04:00

[Цитировать]

Китайскiй сервизъ / Китайский сервиз- Жанр: Комедия
Год выпуска: 1999
Продолжительность: 01:35:23-Режиссер: Виталий Москаленко
В ролях: Олег Янковский, Анна Самохина, Владимир Меньшов, Сергей Никоненко, Богдан Ступка, Сергей Безруков, Сергей Габриэлян, Ирина Безрукова, Максим Лагашкин, Андрей Давыдов и др.-Описание: 1913 год. Самый комфортабельный и богатый речной пароход «Святитель Николай» идёт по Волге из Царицына в Нижний Новгород на празднование 300-летия Дома Романовых. Известно, что мошенники попытаются обыграть в покер Фрола Сатановского, одного из самых богатых купцов Российской империи. Кто же в честной компании шулер — правительственный инспектор граф Строганов, нефтяной магнат Максуд Хундамов, скотопромышленник Коля Сидихин или… певица Волошина, которая поёт в корабельном казино? А ещё на пароходе инкогнито едет знаменитый сыщик Мышко…- -Автор: AngelOfTrue--Качество видео: DVDRip-AVC
Формат видео: MKV
Видео: 712x512@776x512 (4:3), 25 fps, x264 ~2820 kbps avg, 0.277 bit/pixel
Аудио: AC3 Dolby Digital / 48 KHz / 448 kbps / 3/2 (L,C,R,l,r) + LFE ch

x264 log

raw [info]: 712x572p 12:11 @ 25/1 fps (cfr)
x264 [warning]: --psnr used with psy on: results will be invalid!
x264 [warning]: --tune psnr should be used if attempting to benchmark psnr!
x264 [info]: using SAR=12/11
x264 [info]: using cpu capabilities: MMX2 SSE2Fast SSSE3 SSE4.2 AVX AVX2 FMA3 LZCNT BMI2
x264 [info]: profile High, level 3.1
x264 [info]: frame I:925 Avg QP:18.27 size: 66299 PSNR Mean Y:44.42 U:48.93 V:49.32 Avg:45.47 Global:45.02
x264 [info]: frame P:27440 Avg QP:20.89 size: 29466 PSNR Mean Y:42.04 U:48.12 V:48.65 Avg:43.29 Global:42.78
x264 [info]: frame B:114713 Avg QP:23.15 size: 10002 PSNR Mean Y:41.19 U:48.03 V:48.66 Avg:42.51 Global:41.93
x264 [info]: consecutive B-frames: 1.0% 0.8% 5.4% 13.1% 8.3% 67.6% 1.6% 0.9% 0.8% 0.4% 0.3%
x264 [info]: mb I I16..4: 2.5% 75.7% 21.9%
x264 [info]: mb P I16..4: 0.6% 15.2% 2.0% P16..4: 31.0% 34.0% 13.6% 2.0% 0.2% skip: 1.3%
x264 [info]: mb B I16..4: 0.1% 1.7% 0.2% B16..8: 37.5% 21.1% 3.3% direct: 8.2% skip:27.9% L0:28.5% L1:43.2% BI:28.3%
x264 [info]: 8x8 transform intra:84.1% inter:55.7%
x264 [info]: direct mvs spatial:99.6% temporal:0.4%
x264 [info]: coded y,uvDC,uvAC intra: 93.2% 77.8% 40.9% inter: 34.7% 18.3% 4.3%
x264 [info]: i16 v,h,dc,p: 25% 18% 5% 52%
x264 [info]: i8 v,h,dc,ddl,ddr,vr,hd,vl,hu: 11% 10% 6% 9% 13% 14% 12% 13% 12%
x264 [info]: i4 v,h,dc,ddl,ddr,vr,hd,vl,hu: 15% 9% 6% 8% 13% 15% 11% 12% 11%
x264 [info]: i8c dc,h,v,p: 26% 28% 25% 20%
x264 [info]: Weighted P-Frames: Y:7.7% UV:3.8%
x264 [info]: ref P L0: 46.9% 11.0% 17.6% 7.5% 5.6% 4.2% 3.4% 2.0% 1.5% 0.2% 0.0%
x264 [info]: ref B L0: 83.5% 10.5% 2.8% 1.3% 0.9% 0.6% 0.3% 0.1%
x264 [info]: ref B L1: 96.2% 3.8%
x264 [info]: SSIM Mean Y:0.9774513 (16.469db)
x264 [info]: PSNR Mean Y:41.372 U:48.052 V:48.661 Avg:42.680 Global:42.097 kb/s:2819.72

-

MediaInfo

Формат : Matroska
Версия формата : Version 4 / Version 2
Размер файла : 2,18 Гбайт
Продолжительность : 1 ч. 35 м.
Общий поток : 3270 Кбит/сек
Дата кодирования : UTC 2014-03-29 06:12:09
Программа кодирования : mkvmerge v6.1.0 ('Old Devil') built on Mar 4 2013 09:10:42
Библиотека кодирования : libebml v1.3.0 + libmatroska v1.4.0
Видео
Идентификатор : 1
Формат : AVC
Формат/Информация : Advanced Video Codec
Профиль формата : High@L3.1
Параметр CABAC формата : Да
Параметр ReFrames формата : 9 кадров
Идентификатор кодека : V_MPEG4/ISO/AVC
Продолжительность : 1 ч. 35 м.
Битрейт : 2820 Кбит/сек
Ширина : 712 пикселей
Высота : 572 пикселя
Соотношение сторон : 4:3
Соотношение сторон в оригинале : 4:3
Режим частоты кадров : Постоянный
Частота кадров : 25,000 кадров/сек
Цветовое пространство : YUV
Субдискретизация насыщенности : 4:2:0
Битовая глубина : 8 бит
Тип развёртки : Прогрессивная
Бит/(Пиксели*Кадры) : 0.277
Размер потока : 1,84 Гбайт (84%)
Заголовок : Kitaiskii.Serviz.1999.RUS.DVDRip-AVC.AC3.-AngelOfTrue
Библиотека кодирования : x264 core 140 r2377kMod 1ca7bb9
Настройки программы : cabac=1 / ref=9 / deblock=1:-2:-1 / analyse=0x3:0x133 / me=umh / subme=11 / psy=1 / fade_compensate=0.00 / psy_rd=1.00:0.00 / mixed_ref=1 / me_range=32 / chroma_me=1 / trellis=2 / 8x8dct=1 / cqm=0 / deadzone=21,11 / fast_pskip=0 / chroma_qp_offset=-2 / threads=6 / lookahead_threads=1 / sliced_threads=0 / nr=0 / decimate=0 / interlaced=0 / bluray_compat=0 / constrained_intra=0 / fgo=0 / bframes=10 / b_pyramid=2 / b_adapt=2 / b_bias=0 / direct=3 / weightb=1 / open_gop=0 / weightp=2 / keyint=250 / keyint_min=25 / scenecut=40 / intra_refresh=0 / rc_lookahead=60 / rc=2pass / mbtree=0 / bitrate=2820 / ratetol=1.0 / qcomp=0.65 / qpmin=0 / qpmax=69 / qpstep=4 / cplxblur=20.0 / qblur=0.5 / vbv_maxrate=14000 / vbv_bufsize=14000 / nal_hrd=none / filler=0 / ip_ratio=1.35 / pb_ratio=1.25 / aq=2:1.00
Язык : Russian
Default : Да
Forced : Нет
Основные цвета : BT.601 PAL
Характеристики трансфера : BT.470 System B, BT.470 System G
Коэффициенты матрицы : BT.601
Аудио
Идентификатор : 2
Формат : AC-3
Формат/Информация : Audio Coding 3
Расширение режима : CM (complete main)
Параметр Endianness формата : Big
Идентификатор кодека : A_AC3
Продолжительность : 1 ч. 35 м.
Вид битрейта : Постоянный
Битрейт : 448 Кбит/сек
Каналы : 6 каналов
Расположение каналов : Front: L C R, Side: L R, LFE
Частота : 48,0 КГц
Битовая глубина : 16 бит
Метод сжатия : С потерями
Размер потока : 306 Мбайт (14%)
Заголовок : Original
Язык : Russian
Default : Да
Forced : Нет

-

Скриншоты (анаморф)



Скачать

Скачать торрент!

Как скачивать? · Что такое торрент? · Рейтинг и ограничения

Сайт не распространяет и не хранит электронные версии произведений, а лишь предоставляет доступ к создаваемому пользователями каталогу ссылок на торрент-файлы, которые содержат только списки хеш-сумм

[Профиль] [ЛС]
Показать сообщения:    
Ответить на тему

Текущее время: Сегодня 17:31

Часовой пояс: GMT + 4



Вы не можете начинать темы
Вы не можете отвечать на сообщения
Вы не можете редактировать свои сообщения
Вы не можете удалять свои сообщения
Вы не можете голосовать в опросах
Вы не можете прикреплять файлы к сообщениям
Вы не можете скачивать файлы