Лисичка Хэлен / Kogitsune Heren (Кейта Коно / Keita Kono) [2006, Япония, Драма, семейный, DVDRip] VO

Ответить на тему
 
Автор Сообщение

user ®

Стаж: 11 лет

Сообщений: 15151

Пост Пост: #1 от 30-Мар-2014 21:40

[Цитировать]

Лисичка Хэлен / Kogitsune Heren
Страна: Япония
Жанр: Драма, семейный
Год выпуска: 2006
Продолжительность: 01:48:32
Перевод: Одноголосый закадровый
Cубтитры: нет
Режиссер: Кейта Коно / Keita Kono
В ролях: Такао Осава, Ясуко Мацуюки, Араши Фукасава, Риоко Кобаяши, Сюндзи Фуджимура, Хидеко Йошида, Садао Абе
Описание: Фильм о японском мальчике, Тайчи Огаваре, который находит одинокого лисенка на обочине дороги и забирает его домой. Лисенок ведет себя слишком тихо, и Тайчи отвозит его в ветеринарную клинику…
Сэмпл: http://multi-up.com/963289
Качество видео: DVDRip
Формат видео: AVI
Видео: XviD 1 410 Кбит/сек 704 x 384 (1.833) at 23.976 fps
Аудио: AC-3 at 384 Кбит/сек 6 канала(ов), 48,0 КГц

MediaInfo

I:\Лисичка Хэлен\Lisichka Helen 2006.avi
General
Complete name : I:\Лисичка Хэлен\Lisichka Helen 2006.avi
Format : AVI
Format/Info : Audio Video Interleave
File size : 1.37 GiB
Duration : 1h 48mn
Overall bit rate : 1 803 Kbps
Writing application : VirtualDubMod 1.5.10.2 (build 2540/release)
Writing library : VirtualDubMod build 2540/release
Video #0
ID : 0
Format : MPEG-4 Visual
Format profile : Advanced Simple@L5
Format settings, BVOP : 2
Format settings, QPel : No
Format settings, GMC : No warppoints
Format settings, Matrix : Default (MPEG)
Muxing mode : Packed bitstream
Codec ID : XVID
Codec ID/Hint : XviD
Duration : 1h 48mn
Bit rate : 1 410 Kbps
Width : 704 pixels
Height : 384 pixels
Display aspect ratio : 1.85:1
Frame rate : 23.976 fps
Color space : YUV
Chroma subsampling : 4:2:0
Bit depth : 8 bits
Scan type : Progressive
Compression mode : Lossy
Bits/(Pixel*Frame) : 0.218
Stream size : 1.07 GiB (78%)
Writing library : XviD 1.0.3 (UTC 2004-12-20)
Audio #1
ID : 1
Format : AC-3
Format/Info : Audio Coding 3
Mode extension : CM (complete main)
Format settings, Endianness : Big
Codec ID : 2000
Duration : 1h 48mn
Bit rate mode : Constant
Bit rate : 384 Kbps
Channel count : 6 channels
Channel positions : Front: L C R, Side: L R, LFE
Sampling rate : 48.0 KHz
Bit depth : 16 bits
Compression mode : Lossy
Stream size : 298 MiB (21%)
Alignment : Split accross interleaves
Interleave, duration : 42 ms (1.00 video frame)
Interleave, preload duration : 500 ms

Скриншот c названием фильма

Скриншоты

Скачать

Скачать торрент! Лисичка Хэлен / Kogitsune Heren (Кейта Коно / Keita Kono) [2006, Япония, Драма, семейный, DVDRip] VO

Как скачивать? · Что такое торрент? · Рейтинг и ограничения

Сайт не распространяет и не хранит электронные версии произведений, а лишь предоставляет доступ к создаваемому пользователями каталогу ссылок на торрент-файлы, которые содержат только списки хеш-сумм

[Профиль] [ЛС]
Показать сообщения:    
Ответить на тему

Текущее время: Сегодня 00:12

Часовой пояс: GMT + 4



Вы не можете начинать темы
Вы не можете отвечать на сообщения
Вы не можете редактировать свои сообщения
Вы не можете удалять свои сообщения
Вы не можете голосовать в опросах
Вы не можете прикреплять файлы к сообщениям
Вы не можете скачивать файлы