Капля / Сгусток / The Blob (Чак Рассел / Chuck Russell) [1988, США, ужасы, фантастика, WEB-DL 720p] DVO (Рен-ТВ) + VO + Original Eng

Ответить на тему
 
Автор Сообщение

user ®

Стаж: 7 лет 7 месяцев

Сообщений: 20008

Пост Пост: #1 от 30-Мар-2014 21:40

[Цитировать]

Капля (Сгусток) / The Blob- Страна: США
Студия: TriStar Pictures, Palisades California Inc.
Жанр: ужасы, фантастика
Год выпуска: 1988
Продолжительность: 01:34:58-Перевод: Профессиональный (двухголосый закадровый) Рен-ТВ
Перевод 2: Одноголосый закадровый
Cубтитры: нет
Оригинальная аудиодорожка: английский-Режиссер: Чак Рассел / Chuck Russell
В ролях: Кевин Диллон, Шоуни Смит, Эрика Элениак, Донован Лейтч, Джеффри ДеМанн, Кэнди Кларк, Джо Сенека, Дел Клоуз, Пол МакКрейн, Шарон Спелман, Биу Биллингсли, Арт ЛаФлёр, Рики Полл Голдин, Роберт Аксельрод, Билл Моусли, Фрэнк Коллисон, Майкл Кенуорти, Джек Рейдер, Билли Бек, Вэйд Майер, Дуглас Эмерсон, Джек Нэнс, Шарлин Фокс, Маргарет Смит, Тедди Винсент, Дон Бруннер, Клэйтон Ланди, Чарли Спрэдлинг-Описание: Роковой метеорит принес на землю страшное вещество. Жидкая плазма пожирает все на своем пути, и чем больше жертв оказывается в ее бездонных недрах, тем больше становится этот сгусток черной энергии, несущей смерть.
Жители маленького американского городка не верят в страшные рассказы о дьявольской субстанции. А тем временем кровавая масса уже приближается к его окраине…- -Тип релиза: WEB-DL 720p
Контейнер: MKV
Видео: 1280x720 (16:9), ~4483 Kbps, 23.976 fps
Аудио: Russian / 48 kHz, AC3 Dolby Digital, 2/0 (L,R) ~192 kbps
Аудио 2: Russian / 48 kHz, AC3 Dolby Digital, 2/0 (L,R) ~192 kbps
Аудио 3: English / 48 kHz, AAC Advanced Audio Codec, 2/0 (L,R)

MediaInfo

The Blob (1988).mkv
Формат : Matroska
Версия формата : Version 4 / Version 2
Размер файла : 2,97 Гбайт
Продолжительность : 1 ч. 34 м.
Общий поток : 4483 Кбит/сек
Название фильма : Капля / The Blob (1988) - Chuck Russell
Дата кодирования : UTC 2014-03-28 15:48:31
Программа кодирования : mkvmerge v6.1.0 ('Old Devil') built on Mar 2 2013 14:32:37
Библиотека кодирования : libebml v1.3.0 + libmatroska v1.4.0
Обложка : Cover
Видео
Идентификатор : 1
Формат : AVC
Формат/Информация : Advanced Video Codec
Профиль формата : High@L3.1
Параметр CABAC формата : Нет
Параметр ReFrames формата : 2 кадра
Идентификатор кодека : V_MPEG4/ISO/AVC
Продолжительность : 1 ч. 34 м.
Ширина : 1280 пикселей
Высота : 720 пикселей
Соотношение сторон : 16:9
Режим частоты кадров : Постоянный
Частота кадров : 23,976 кадра/сек
Цветовое пространство : YUV
Субдискретизация насыщенности : 4:2:0
Битовая глубина : 8 бит
Тип развёртки : Прогрессивная
Заголовок : Капля / The Blob (1988) -=WEBiOS=-
Язык : English
Default : Да
Forced : Нет
Основные цвета : BT.709
Характеристики трансфера : BT.709
Коэффициенты матрицы : BT.709
Аудио #1
Идентификатор : 2
Формат : AC-3
Формат/Информация : Audio Coding 3
Расширение режима : CM (complete main)
Параметр Endianness формата : Big
Идентификатор кодека : A_AC3
Продолжительность : 1 ч. 34 м.
Вид битрейта : Постоянный
Битрейт : 192 Кбит/сек
Каналы : 2 канала
Расположение каналов : Front: L R
Частота : 48,0 КГц
Битовая глубина : 16 бит
Метод сжатия : С потерями
Размер потока : 130 Мбайт (4%)
Заголовок : Профессиональный (двухголосый закадровый) - РенТВ
Язык : Russian
Default : Нет
Forced : Нет
Аудио #2
Идентификатор : 3
Формат : AC-3
Формат/Информация : Audio Coding 3
Расширение режима : CM (complete main)
Параметр Endianness формата : Big
Идентификатор кодека : A_AC3
Продолжительность : 1 ч. 34 м.
Вид битрейта : Постоянный
Битрейт : 192 Кбит/сек
Каналы : 2 канала
Расположение каналов : Front: L R
Частота : 48,0 КГц
Битовая глубина : 16 бит
Метод сжатия : С потерями
Размер потока : 130 Мбайт (4%)
Заголовок : Одноголосый закадровый
Язык : Russian
Default : Нет
Forced : Нет
Аудио #3
Идентификатор : 4
Формат : AAC
Формат/Информация : Advanced Audio Codec
Профиль формата : LC
Идентификатор кодека : A_AAC
Продолжительность : 1 ч. 34 м.
Каналы : 2 канала
Расположение каналов : Front: L R
Частота : 48,0 КГц
Метод сжатия : С потерями
Язык : English
Default : Нет
Forced : Нет
Меню
00:00:00.000 : en:Start
00:03:47.000 : en:Paul Taylor
00:05:34.000 : en:Brian Flagg
00:10:22.000 : en:Moss
00:11:58.000 : en:Fire in the Sky
00:12:52.000 : en:Ribbed or Regular
00:14:41.000 : en:Blob-on-a-stick
00:16:15.000 : en:Meg's Family
00:19:01.000 : en:Watcher in the Woods
00:20:16.000 : en:Flagg'n down a ride
00:24:32.000 : en:Room 3
00:26:08.000 : en:Blob Coverage
00:28:39.000 : en:Scott's Final Score
00:35:10.000 : en:Punk Yes, Killer No
00:38:23.000 : en:"I need your help."
00:41:51.000 : en:Down the drain
00:45:23.000 : en:Out of service
00:51:17.000 : en:Doctor Meadows
00:53:57.000 : en:Splatter flick
00:57:07.000 : en:Patients, not prisoners
01:00:55.000 : en:Movie Madness
01:03:55.000 : en:Experimental Virus
01:06:56.000 : en:Civilian Escape
01:10:31.000 : en:In the sewers
01:15:04.000 : en:Closed off?
01:17:49.000 : en:"It's a lie!"
01:21:13.000 : en:Blob on the loose
01:24:33.000 : en:"It can't stand the cold!"

Скриншоты



Скачать

Скачать торрент!

Как скачивать? · Что такое торрент? · Рейтинг и ограничения

Сайт не распространяет и не хранит электронные версии произведений, а лишь предоставляет доступ к создаваемому пользователями каталогу ссылок на торрент-файлы, которые содержат только списки хеш-сумм

[Профиль] [ЛС]
Показать сообщения:    
Ответить на тему

Текущее время: Сегодня 12:49

Часовой пояс: GMT + 4



Вы не можете начинать темы
Вы не можете отвечать на сообщения
Вы не можете редактировать свои сообщения
Вы не можете удалять свои сообщения
Вы не можете голосовать в опросах
Вы не можете прикреплять файлы к сообщениям
Вы не можете скачивать файлы