Машина времени в джакузи / Hot Tub Time Machine (Стив Пинк / Steve Pink) [2010, США, фантастика, комедия, BDRip 720p] [Theatrical Cut] Dub + Ukr Mvo + Original Eng + Sub Rus, Eng

Ответить на тему
 
Автор Сообщение

user ®

Стаж: 7 лет 7 месяцев

Сообщений: 20008

Пост Пост: #1 от 30-Мар-2014 21:40

[Цитировать]

Машина времени в джакузи / Hot Tub Time Machine- Страна: США
Жанр: фантастика, комедия
Год выпуска: 2010
Продолжительность: 01:38:56
Перевод: Профессиональный (дублированный)
Cубтитры: русские, английские
Оригинальная аудиодорожка: английский-Режиссер: Стив Пинк / Steve Pink
Сценарий: Джош Хилд / Josh Heald, Шон Андерс / Sean Anders, Джон Моррис / John Morris
Продюсер: Джон Кьюсак / John Cusack, Грэйс Лох / Grace Loh, Мэтт Мур / Matt Moore
Оператор: Джек Н. Грин / Jack N. Green
Композитор: Кристоф Бек / Christophe Beck-В ролях: Джон Кьюсак (Adam), Кларк Дьюк (Jacob), Крэйг Робинсон (Nick), Роб Кордри (Lou), Себастиан Стэн (Blaine), Линдси Фонсека (Jenny), Криспин Гловер (Phil), Чеви Чейз (Repairman), Чарли МакДермотт (Chaz), Лиззи Каплан (April), Коллетт Вульф (Kelly).-Описание: Четверо друзей собираются вместе, чтобы отдохнуть от обыденной жизни и как следует повеселиться. Однако их скучное состояние не позволяет им полностью расслабиться, и они решают принять алкоголь. Забравшись в джакузи, они распивают спиртные напитки и вспоминают различные истории, происходившие с ними в молодости. В это время проводку в джакузи замыкает, и друзья оказываются в прошлом. Они попадают в 1986 год в небольшой городок на лыжном курорте. Им повезло, ведь они вновь могут пережить самые яркие моменты в их жизни. Друзья полностью наслаждаются этим временем, а кто-то из них и вовсе получает шанс исправить ошибки молодости...-Качество: BDRip 720p | Контейнер: MKV | HDCLUB
Видео: 1280x692 (1.85:1), 23.976 fps, x264@L4.1 ~ 6982 kbps avg
Аудио 1: Russian 48 kHz, DTS, 3/2 (L,C,R,l,r) + LFE ch, 755.00 kbps avg | R5
Аудио 2: Ukrainian 48 kHz, AC3, 3/2 (L,C,R,l,r) + LFE ch, 384.00 kbps avg | Mvo R5
Аудио 3: English 48 kHz, DTS, 3/2 (L,C,R,l,r) + LFE ch, 1509.00 kbps avg | Original
Формат субтитров: srt | Sample

Скриншоты

Медиаинфо

Общее
Формат : Matroska
Версия формата : Version 4 / Version 2
Размер файла : 6,65 Гбайт
Продолжительность : 1 ч. 38 м.
Общий поток : 9626 Кбит/сек
Название фильма : Hot Tub Time Machine 2010
Дата кодирования : UTC 2014-03-24 17:10:54
Программа кодирования : mkvmerge v6.6.0 ('The Edge Of The In Between') built on Dec 1 2013 17:55:00
Библиотека кодирования : libebml v1.3.0 + libmatroska v1.4.1
Видео
Идентификатор : 1
Формат : AVC
Формат/Информация : Advanced Video Codec
Профиль формата : High@L4.1
Параметр CABAC формата : Да
Параметр ReFrames формата : 8 кадров
Идентификатор кодека : V_MPEG4/ISO/AVC
Продолжительность : 1 ч. 38 м.
Битрейт : 6982 Кбит/сек
Ширина : 1280 пикселей
Высота : 692 пикселя
Соотношение сторон : 1,85:1
Режим частоты кадров : Постоянный
Частота кадров : 23,976 кадра/сек
Цветовое пространство : YUV
Субдискретизация насыщенности : 4:2:0
Битовая глубина : 8 бит
Тип развёртки : Прогрессивная
Бит/(Пиксели*Кадры) : 0.329
Размер потока : 4,69 Гбайт (71%)
Заголовок : BDRip 720p Release for HDCLUB
Библиотека кодирования : x264 core 104 r1677 19df41a
Настройки программы : cabac=1 / ref=8 / deblock=1:-3:-3 / analyse=0x3:0x113 / me=umh / subme=10 / psy=1 / psy_rd=1.00:0.00 / mixed_ref=1 / me_range=32 / chroma_me=1 / trellis=2 / 8x8dct=1 / cqm=0 / deadzone=21,11 / fast_pskip=0 / chroma_qp_offset=-2 / threads=6 / sliced_threads=0 / nr=0 / decimate=1 / interlaced=0 / constrained_intra=0 / bframes=7 / b_pyramid=2 / b_adapt=2 / b_bias=0 / direct=3 / weightb=1 / open_gop=0 / weightp=2 / keyint=250 / keyint_min=23 / scenecut=40 / intra_refresh=0 / rc=2pass / mbtree=0 / bitrate=6982 / ratetol=1.0 / qcomp=0.60 / qpmin=10 / qpmax=51 / qpstep=4 / cplxblur=20.0 / qblur=0.5 / ip_ratio=1.40 / pb_ratio=1.30 / aq=1:0.80
Язык : English
Default : Да
Forced : Нет
Аудио #1
Идентификатор : 2
Формат : DTS
Формат/Информация : Digital Theater Systems
Режим : 16
Параметр Endianness формата : Big
Идентификатор кодека : A_DTS
Продолжительность : 1 ч. 38 м.
Вид битрейта : Постоянный
Битрейт : 755 Кбит/сек
Каналы : 6 каналов
Расположение каналов : Front: L C R, Side: L R, LFE
Частота : 48,0 КГц
Битовая глубина : 24 бит
Метод сжатия : С потерями
Размер потока : 534 Мбайт (8%)
Заголовок : R5
Язык : Russian
Default : Да
Forced : Нет
Аудио #2
Идентификатор : 3
Формат : AC-3
Формат/Информация : Audio Coding 3
Расширение режима : CM (complete main)
Параметр Endianness формата : Big
Идентификатор кодека : A_AC3
Продолжительность : 1 ч. 38 м.
Вид битрейта : Постоянный
Битрейт : 384 Кбит/сек
Каналы : 6 каналов
Расположение каналов : Front: L C R, Side: L R, LFE
Частота : 48,0 КГц
Битовая глубина : 16 бит
Метод сжатия : С потерями
Размер потока : 272 Мбайт (4%)
Заголовок : MVO R5
Язык : Ukrainian
Default : Нет
Forced : Нет
Аудио #3
Идентификатор : 4
Формат : DTS
Формат/Информация : Digital Theater Systems
Режим : 16
Параметр Endianness формата : Big
Идентификатор кодека : A_DTS
Продолжительность : 1 ч. 38 м.
Вид битрейта : Постоянный
Битрейт : 1509 Кбит/сек
Каналы : 6 каналов
Расположение каналов : Front: L C R, Side: L R, LFE
Частота : 48,0 КГц
Битовая глубина : 24 бит
Метод сжатия : С потерями
Размер потока : 1,04 Гбайт (16%)
Заголовок : Original
Язык : English
Default : Нет
Forced : Нет
Текст #1
Идентификатор : 5
Формат : UTF-8
Идентификатор кодека : S_TEXT/UTF8
Идентификатор кодека/Информация : UTF-8 Plain Text
Заголовок : Full
Язык : Russian
Default : Нет
Forced : Нет
Текст #2
Идентификатор : 6
Формат : UTF-8
Идентификатор кодека : S_TEXT/UTF8
Идентификатор кодека/Информация : UTF-8 Plain Text
Заголовок : Full SDH
Язык : English
Default : Нет
Forced : Нет
Меню
00:00:00.000 : en:1
00:04:43.908 : en:2
00:09:42.748 : en:3
00:12:41.844 : en:4
00:16:53.178 : en:5
00:19:25.789 : en:6
00:21:45.345 : en:7
00:26:11.695 : en:8
00:29:02.323 : en:9
00:32:09.010 : en:10
00:36:50.750 : en:11
00:39:59.772 : en:12
00:43:41.952 : en:13
00:46:57.147 : en:14
00:48:34.703 : en:15
00:50:12.467 : en:16
00:53:46.514 : en:17
00:57:07.257 : en:18
01:00:04.350 : en:19
01:02:34.375 : en:20
01:05:06.610 : en:21
01:08:57.216 : en:22
01:13:51.385 : en:23
01:17:26.390 : en:24
01:19:10.954 : en:25
01:23:45.103 : en:26
01:25:54.399 : en:27
01:31:36.782 : en:28
Скачать

Скачать торрент!

Как скачивать? · Что такое торрент? · Рейтинг и ограничения

Сайт не распространяет и не хранит электронные версии произведений, а лишь предоставляет доступ к создаваемому пользователями каталогу ссылок на торрент-файлы, которые содержат только списки хеш-сумм

[Профиль] [ЛС]
Показать сообщения:    
Ответить на тему

Текущее время: Сегодня 12:52

Часовой пояс: GMT + 4



Вы не можете начинать темы
Вы не можете отвечать на сообщения
Вы не можете редактировать свои сообщения
Вы не можете удалять свои сообщения
Вы не можете голосовать в опросах
Вы не можете прикреплять файлы к сообщениям
Вы не можете скачивать файлы