Невероятная жизнь Уолтера Митти / The Secret Life of Walter Mitty (Бен Стиллер / Ben Stiller) [2013, США, приключения, мелодрама, драма, комедия, фэнтези, BDRip 720p] Dub + Ukr Dub + Original Eng + Sub Rus, Eng

Ответить на тему
 
Автор Сообщение

user ®

Стаж: 7 лет 7 месяцев

Сообщений: 20008

Пост Пост: #1 от 30-Мар-2014 21:40

[Цитировать]

-Невероятная жизнь Уолтера Митти / The Secret Life of Walter Mitty- Страна: США
Жанр: приключения, мелодрама, драма, комедия, фэнтези
Год выпуска: 2013
Продолжительность: 01:54:34
Перевод: Профессиональный (дублированный)
Cубтитры: русские, английские
Оригинальная аудиодорожка: английский-Режиссер: Бен Стиллер / Ben Stiller
Сценарий: Стив Конрад / Steve Conrad, Джеймс Турбер / James Thurber
Продюсер: Стюарт Корнфелд / Stuart Cornfeld, Сэмюэл Голдуин мл. / Samuel Goldwyn Jr.
Оператор: Стюарт Драйбёрг / Stuart Dryburgh
Композитор: Теодор Шапиро / Theodore Shapiro-В ролях: Бен Стиллер (Walter Mitty), Кристен Уиг (Cheryl Melhoff), Адам Скотт (Ted Hendricks), Ширли МакЛейн (Edna Mitty), Кэтрин Хан (Odessa Mitty), Шон Пенн (Sean O'Connell), Пэттон Освальт (Todd Maher), Адриан Мартинес (Hernando), Олафур Дарри Олафссон (Helicopter Pilot), Маркус Анттури (Rich Melhoff), Джон Дэйли (Tim Naughton), Теренс Берни Хайнс (Gary Mannheim).-Описание: Уолтер Митти — обычный скромный мужчина, работающий в издательстве популярного журнала Life. Он живет очень скучной и однообразной жизнью, в которой есть только одна радость — привлекательная коллега Шерил. Однако он не может набраться смелости и подойди к ней. Уолтер очень много мечтает и в своих мыслях он совершает невероятные приключения, представляя себя самым настоящим супергероем. В один прекрасный момент ему поручают отыскать фотографию известного путешественника Шона О' Коннела, необходимую для очередного выпуска журнала. Но это задание оказывается очень сложным, ведь куда проще найти самого Шона, чем его старую фотографию. Отправившись на поиски путешественника, Уолтер даже не догадывался о том, что впереди его ждет незабываемое приключение, после которого его жизнь изменится самым кардинальным образом...-Качество: BDRip 720p | Контейнер: MKV
Видео: 1280x532 (2.40:1), 23.976 fps, x264@L4.1 ~ 5210 kbps avg
Аудио 1: Russian 48 kHz, DTS, 3/2 (L,C,R,l,r) + LFE ch, 768.00 kbps avg | BD CEE
Аудио 2: Ukrainian 48 kHz, AC3, 3/2 (L,C,R,l,r) + LFE ch, 448.00 kbps avg | BD CEE
Аудио 3: English 48 kHz, DTS, 3/2 (L,C,R,l,r) + LFE ch, 1509.00 kbps avg | Original

Сэмпл

Сэмпл

Скриншоты

Медиаинфо

Общее
Формат : Matroska
Версия формата : Version 4 / Version 2
Размер файла : 6,35 Гбайт
Продолжительность : 1 ч. 54 м.
Общий поток : 7932 Кбит/сек
Название фильма : The Secret Life of Walter Mitty 2013
Дата кодирования : UTC 2014-03-29 13:19:53
Программа кодирования : mkvmerge v6.6.0 ('The Edge Of The In Between') built on Dec 1 2013 17:55:00
Библиотека кодирования : libebml v1.3.0 + libmatroska v1.4.1
Видео
Идентификатор : 1
Формат : AVC
Формат/Информация : Advanced Video Codec
Профиль формата : High@L4.1
Параметр CABAC формата : Да
Параметр ReFrames формата : 7 кадров
Идентификатор кодека : V_MPEG4/ISO/AVC
Продолжительность : 1 ч. 54 м.
Битрейт : 5210 Кбит/сек
Ширина : 1280 пикселей
Высота : 534 пикселя
Соотношение сторон : 2,40:1
Режим частоты кадров : Постоянный
Частота кадров : 23,976 кадра/сек
Цветовое пространство : YUV
Субдискретизация насыщенности : 4:2:0
Битовая глубина : 8 бит
Тип развёртки : Прогрессивная
Бит/(Пиксели*Кадры) : 0.318
Размер потока : 4,04 Гбайт (64%)
Заголовок : BDRip 720p
Библиотека кодирования : x264 core 130 r2273 b3065e6
Настройки программы : cabac=1 / ref=7 / deblock=1:-3:-3 / analyse=0x3:0x113 / me=umh / subme=10 / psy=1 / psy_rd=1.10:0.04 / mixed_ref=1 / me_range=32 / chroma_me=1 / trellis=2 / 8x8dct=1 / cqm=0 / deadzone=21,11 / fast_pskip=0 / chroma_qp_offset=-5 / threads=6 / lookahead_threads=1 / sliced_threads=0 / nr=0 / decimate=1 / interlaced=0 / bluray_compat=0 / constrained_intra=0 / bframes=8 / b_pyramid=2 / b_adapt=2 / b_bias=0 / direct=3 / weightb=1 / open_gop=0 / weightp=1 / keyint=240 / keyint_min=24 / scenecut=40 / intra_refresh=0 / rc_lookahead=60 / rc=2pass / mbtree=1 / bitrate=5210 / ratetol=1.0 / qcomp=0.80 / qpmin=0 / qpmax=69 / qpstep=4 / cplxblur=20.0 / qblur=0.5 / vbv_maxrate=50000 / vbv_bufsize=62500 / nal_hrd=none / ip_ratio=1.40 / aq=1:0.80
Язык : English
Default : Да
Forced : Нет
Аудио #1
Идентификатор : 2
Формат : DTS
Формат/Информация : Digital Theater Systems
Режим : 16
Параметр Endianness формата : Big
Идентификатор кодека : A_DTS
Продолжительность : 1 ч. 54 м.
Вид битрейта : Постоянный
Битрейт : 768 Кбит/сек
Каналы : 6 каналов
Расположение каналов : Front: L C R, Side: L R, LFE
Частота : 48,0 КГц
Битовая глубина : 24 бит
Метод сжатия : С потерями
Размер потока : 629 Мбайт (10%)
Заголовок : BD CEE
Язык : Russian
Default : Да
Forced : Нет
Аудио #2
Идентификатор : 3
Формат : AC-3
Формат/Информация : Audio Coding 3
Расширение режима : CM (complete main)
Параметр Endianness формата : Big
Идентификатор кодека : A_AC3
Продолжительность : 1 ч. 54 м.
Вид битрейта : Постоянный
Битрейт : 448 Кбит/сек
Каналы : 6 каналов
Расположение каналов : Front: L C R, Side: L R, LFE
Частота : 48,0 КГц
Битовая глубина : 16 бит
Метод сжатия : С потерями
Размер потока : 367 Мбайт (6%)
Заголовок : BD CEE
Язык : Ukrainian
Default : Нет
Forced : Нет
Аудио #3
Идентификатор : 4
Формат : DTS
Формат/Информация : Digital Theater Systems
Режим : 16
Параметр Endianness формата : Big
Идентификатор кодека : A_DTS
Продолжительность : 1 ч. 54 м.
Вид битрейта : Постоянный
Битрейт : 1509 Кбит/сек
Каналы : 6 каналов
Расположение каналов : Front: L C R, Side: L R, LFE
Частота : 48,0 КГц
Битовая глубина : 24 бит
Метод сжатия : С потерями
Размер потока : 1,21 Гбайт (19%)
Заголовок : Original
Язык : English
Default : Нет
Forced : Нет
Текст #1
Идентификатор : 5
Формат : UTF-8
Идентификатор кодека : S_TEXT/UTF8
Идентификатор кодека/Информация : UTF-8 Plain Text
Заголовок : Full
Язык : Russian
Default : Нет
Forced : Нет
Текст #2
Идентификатор : 6
Формат : UTF-8
Идентификатор кодека : S_TEXT/UTF8
Идентификатор кодека/Информация : UTF-8 Plain Text
Заголовок : Forced
Язык : English
Default : Нет
Forced : Нет
Текст #3
Идентификатор : 7
Формат : UTF-8
Идентификатор кодека : S_TEXT/UTF8
Идентификатор кодека/Информация : UTF-8 Plain Text
Заголовок : Full SDH
Язык : English
Default : Нет
Forced : Нет
Текст #4
Идентификатор : 8
Формат : UTF-8
Идентификатор кодека : S_TEXT/UTF8
Идентификатор кодека/Информация : UTF-8 Plain Text
Заголовок : Full SDH Colored
Язык : English
Default : Нет
Forced : Нет
Меню
00:00:00.000 : :Chapter 01
00:02:51.004 : :Chapter 03
00:05:39.756 : :Chapter 05
00:08:33.971 : :Chapter 07
00:10:54.570 : :Chapter 09
00:13:52.248 : :Chapter 11
00:17:48.233 : :Chapter 13
00:20:39.655 : :Chapter 15
00:23:33.245 : :Chapter 17
00:26:31.381 : :Chapter 19
00:30:08.264 : :Chapter 21
00:32:19.520 : :Chapter 23
00:35:01.057 : :Chapter 25
00:38:18.838 : :Chapter 27
00:40:31.846 : :Chapter 29
00:44:51.480 : :Chapter 31
00:48:13.890 : :Chapter 33
00:51:29.669 : :Chapter 35
00:54:36.273 : :Chapter 37
00:57:28.403 : :Chapter 39
01:00:02.140 : :Chapter 41
01:03:10.620 : :Chapter 43
01:05:28.382 : :Chapter 45
01:09:27.288 : :Chapter 47
01:11:23.028 : :Chapter 49
01:14:06.650 : :Chapter 51
01:18:31.748 : :Chapter 53
01:22:50.882 : :Chapter 55
01:28:52.535 : :Chapter 57
01:30:24.460 : :Chapter 59
01:33:54.670 : :Chapter 61
01:35:39.483 : :Chapter 63
01:38:24.356 : :Chapter 65
01:39:48.273 : :Chapter 67
01:43:01.675 : :Chapter 69
01:44:28.262 : :Chapter 71
01:54:34.659 : :Chapter 72
Скачать

Скачать торрент!

Как скачивать? · Что такое торрент? · Рейтинг и ограничения

Сайт не распространяет и не хранит электронные версии произведений, а лишь предоставляет доступ к создаваемому пользователями каталогу ссылок на торрент-файлы, которые содержат только списки хеш-сумм

[Профиль] [ЛС]
Показать сообщения:    
Ответить на тему

Текущее время: Сегодня 12:54

Часовой пояс: GMT + 4



Вы не можете начинать темы
Вы не можете отвечать на сообщения
Вы не можете редактировать свои сообщения
Вы не можете удалять свои сообщения
Вы не можете голосовать в опросах
Вы не можете прикреплять файлы к сообщениям
Вы не можете скачивать файлы