Вкусная дрянь / Штучка / The Stuff (Ларри Коэн / Larry Cohen) [1985, США, ужасы, фантастика, комедия, детектив, BDRip 720p] Dub (Варус Видео) + AVO (Пронин) + VO + Original Eng + Sub (Eng)

Ответить на тему
 
Автор Сообщение

user ®

Стаж: 7 лет 7 месяцев

Сообщений: 20008

Пост Пост: #1 от 30-Мар-2014 21:40

[Цитировать]

Вкусная дрянь (Штучка) / The Stuff- Страна: США, Larco Productions Inc., New World Pictures
Жанр: ужасы, фантастика, комедия, детектив
Год выпуска: 1985
Продолжительность: 01:26:31-Перевод: Профессиональный (дублированный) Варус Видео
Перевод 2: Авторский (одноголосый закадровый) Пронин
Перевод 3: Одноголосый закадровый
Cубтитры: Английские
Оригинальная аудиодорожка: английский-Режиссер: Ларри Коэн / Larry Cohen
В ролях: Майкл Мориарти, Андреа Марковиччи, Гаррет Моррис, Пол Сорвино, Скотт Блум, Дэнни Айелло, Патрик О’Нил, Джеймс Диксон, Александр Скурби, Рассел Найп-Описание: Зимой на Аляске группа людей находит на снегу некую липкую массу, похожую на сгущёнку. Люди пробуют её — она оказывается очень вкусной. Но эта масса обладает одним интересным свойством — она живая. Но такой её особенности люди не придают особого внимания. Через некоторое время данный продукт рекомендуют к питанию по всей стране. Людям она приходится по вкусу, они готовы есть её постоянно и заменить ей все свои обычные продукты питания. В стране строят фабрики, которые будут производить новый пищевой продукт. Далее действие фильма смещается на одну семью. В этом семействе маленький мальчик обращает внимание на особенность массы — она живая и передвигается. Мальчик сообщает о своем наблюдении своим родителям, но они не видят в этом свойстве массы никакой опасности. Но с этой вкусной дрянью всё оказалось совсем не просто — люди, употребляющие её превращаются в бездушных зомби. Такими же становятся и родители мальчика, обнаружившего опасность, а также его старший брат. А сам мальчик вынужден убежать из дома.-- -Тип релиза: BDRip 720p
Контейнер: MKV
Видео: 1280x696 (1,85:1), ~4781 Kbps, 23.976 fps
Аудио: Russian / 48 kHz, AC3 Dolby Digital, 2/0 (L,R) 192 kbps
Аудио 2: Russian / 48 kHz, AC3 Dolby Digital, 2/0 (L,R) 192 kbps
Аудио 3: Russian / 48 kHz, AC3 Dolby Digital, 2/0 (L,R) 192 kbps
Аудио 4: English / 48 kHz, AC3 Dolby Digital, 1/0 (C) 640 kbps
Субтитры: English / SRT (UTF-8 Plain Text)

MediaInfo

The Stuff (1985).mkv
Формат : Matroska
Версия формата : Version 4 / Version 2
Размер файла : 3,63 Гбайт
Продолжительность : 1 ч. 26 м.
Общий поток : 5999 Кбит/сек
Название фильма : The Stuff (1985) Вкусная дрянь / Штучка
Дата кодирования : UTC 2014-03-30 15:04:54
Программа кодирования : mkvmerge v6.1.0 ('Old Devil') built on Mar 2 2013 14:32:37
Библиотека кодирования : libebml v1.3.0 + libmatroska v1.4.0
Видео
Идентификатор : 1
Формат : AVC
Формат/Информация : Advanced Video Codec
Профиль формата : High@L4.1
Параметр CABAC формата : Да
Параметр ReFrames формата : 5 кадров
Идентификатор кодека : V_MPEG4/ISO/AVC
Продолжительность : 1 ч. 26 м.
Битрейт : 4781 Кбит/сек
Ширина : 1280 пикселей
Высота : 696 пикселей
Соотношение сторон : 1,85:1
Режим частоты кадров : Постоянный
Частота кадров : 23,976 кадра/сек
Цветовое пространство : YUV
Субдискретизация насыщенности : 4:2:0
Битовая глубина : 8 бит
Тип развёртки : Прогрессивная
Бит/(Пиксели*Кадры) : 0.224
Размер потока : 2,82 Гбайт (78%)
Заголовок : The Stuff (1985) -=7SinS=-
Библиотека кодирования : x264 core 142 r2389 956c8d8
Настройки программы : cabac=1 / ref=5 / deblock=1:0:0 / analyse=0x3:0x133 / me=umh / subme=8 / psy=1 / psy_rd=1.00:0.00 / mixed_ref=1 / me_range=16 / chroma_me=1 / trellis=1 / 8x8dct=1 / cqm=0 / deadzone=21,11 / fast_pskip=0 / chroma_qp_offset=-2 / threads=12 / lookahead_threads=2 / sliced_threads=0 / nr=0 / decimate=1 / interlaced=0 / bluray_compat=0 / constrained_intra=0 / bframes=3 / b_pyramid=2 / b_adapt=2 / b_bias=0 / direct=3 / weightb=1 / open_gop=0 / weightp=2 / keyint=250 / keyint_min=23 / scenecut=40 / intra_refresh=0 / rc_lookahead=50 / rc=2pass / mbtree=1 / bitrate=4781 / ratetol=1.0 / qcomp=0.60 / qpmin=0 / qpmax=69 / qpstep=4 / cplxblur=20.0 / qblur=0.5 / ip_ratio=1.40 / aq=1:1.00
Язык : English
Default : Да
Forced : Нет
Аудио #1
Идентификатор : 2
Формат : AC-3
Формат/Информация : Audio Coding 3
Расширение режима : CM (complete main)
Параметр Endianness формата : Big
Идентификатор кодека : A_AC3
Продолжительность : 1 ч. 26 м.
Вид битрейта : Постоянный
Битрейт : 192 Кбит/сек
Каналы : 2 канала
Расположение каналов : Front: L R
Частота : 48,0 КГц
Битовая глубина : 16 бит
Метод сжатия : С потерями
Размер потока : 119 Мбайт (3%)
Заголовок : Профессиональный Дубляж. «Варус-Видео»
Язык : Russian
Default : Да
Forced : Нет
Аудио #2
Идентификатор : 3
Формат : AC-3
Формат/Информация : Audio Coding 3
Расширение режима : CM (complete main)
Параметр Endianness формата : Big
Идентификатор кодека : A_AC3
Продолжительность : 1 ч. 26 м.
Вид битрейта : Постоянный
Битрейт : 192 Кбит/сек
Каналы : 2 канала
Расположение каналов : Front: L R
Частота : 48,0 КГц
Битовая глубина : 16 бит
Метод сжатия : С потерями
Размер потока : 119 Мбайт (3%)
Заголовок : Авторский (Пронин)
Язык : Russian
Default : Нет
Forced : Нет
Аудио #3
Идентификатор : 4
Формат : AC-3
Формат/Информация : Audio Coding 3
Расширение режима : CM (complete main)
Параметр Endianness формата : Big
Идентификатор кодека : A_AC3
Продолжительность : 1 ч. 26 м.
Вид битрейта : Постоянный
Битрейт : 192 Кбит/сек
Каналы : 2 канала
Расположение каналов : Front: L R
Частота : 48,0 КГц
Битовая глубина : 16 бит
Метод сжатия : С потерями
Размер потока : 119 Мбайт (3%)
Заголовок : Одноголосый
Язык : Russian
Default : Нет
Forced : Нет
Аудио #4
Идентификатор : 5
Формат : AC-3
Формат/Информация : Audio Coding 3
Расширение режима : CM (complete main)
Параметр Endianness формата : Big
Идентификатор кодека : A_AC3
Продолжительность : 1 ч. 26 м.
Вид битрейта : Постоянный
Битрейт : 640 Кбит/сек
Каналы : 1 канал
Расположение каналов : Front: C
Частота : 48,0 КГц
Битовая глубина : 16 бит
Метод сжатия : С потерями
Размер потока : 396 Мбайт (11%)
Язык : English
Default : Нет
Forced : Нет
Текст
Идентификатор : 6
Формат : UTF-8
Идентификатор кодека : S_TEXT/UTF8
Идентификатор кодека/Информация : UTF-8 Plain Text
Язык : English
Default : Нет
Forced : Нет
Меню
00:00:00.000 : en:00:00:00.000
00:07:58.520 : en:00:07:58.520
00:15:23.464 : en:00:15:23.464
00:21:02.720 : en:00:21:02.720
00:28:20.365 : en:00:28:20.365
00:34:06.419 : en:00:34:06.419
00:40:13.244 : en:00:40:13.244
00:47:55.331 : en:00:47:55.331
00:56:32.639 : en:00:56:32.639
01:01:27.642 : en:01:01:27.642
01:08:49.334 : en:01:08:49.334
01:19:48.826 : en:01:19:48.826

Скриншоты



--=Приятного просмотра!=-
Скачать

Скачать торрент!

Как скачивать? · Что такое торрент? · Рейтинг и ограничения

Сайт не распространяет и не хранит электронные версии произведений, а лишь предоставляет доступ к создаваемому пользователями каталогу ссылок на торрент-файлы, которые содержат только списки хеш-сумм

[Профиль] [ЛС]
Показать сообщения:    
Ответить на тему

Текущее время: Сегодня 17:48

Часовой пояс: GMT + 4



Вы не можете начинать темы
Вы не можете отвечать на сообщения
Вы не можете редактировать свои сообщения
Вы не можете удалять свои сообщения
Вы не можете голосовать в опросах
Вы не можете прикреплять файлы к сообщениям
Вы не можете скачивать файлы